Welcome Guest ( Log In | Register )

> Poems Of The Elder & Hermóðr - Midnight Sun [split] (2019), Atmospheric Black Metal | Atmospheric Black Metal
post Jul 12 2019, 21:15:42
Post #1

Литр
*
Group: Подсевший
Posts: 80
Releases: 35
On Forums: 7 months 2 days
Thanks: 618 time(s)
Unknown


(IMG:https://metalarea.org/images/audiocovers/2019_Jul/acov_tid324354_thumb.jpg)

*Artist: Poems Of The Elder & Hermóðr
*Album: Midnight Sun [split]
*Year: 2019
*Genre: Atmospheric Black Metal | Atmospheric Black Metal
*Country: Germany (IMG:https://metalarea.org/forum/style_images/flags/Germany.png) | Sweden (IMG:https://metalarea.org/forum/style_images/flags/Sweden.png)
*Format: mp3@CBR320kbps
*Size: 92MB

Tracklist:
Poems of the Elder:
1. Father's Burial Mound 9:26
2. Teutoburg Forest 8:35
3. The First Day of Breidablik 2:10

Hermóðr:
4. Hall of Heroes 03:46
5. Black Mountain 8:52
6. Beneath the Snow 4:08
7. White Death's Power (White Death cover) 3:16
******************************
Total playing time: 40:13

(IMG:https://metalarea.org/images/youtube.png)

Technical info
(IMG:https://metalarea.org/images/spectrogram/2019_Jul/dba6932110bbd7dfbc2899e17c958c3f.png)
Input File: 01 Poems of the Elder - Father\'s Burial Mound.mp3
Channels : 2
Sample Rate : 44100
Precision : 16-bit
Duration : 00:09:25.50 = 24938682 samples = 42412.7 CDDA sectors
File Size : 22.6M
Bit Rate : 320k
Sample Encoding: MPEG audio (layer I, II or III)
Comments :
Title=Father's Burial Mound
Artist=Poems of the Elder
Album=Midnight Sun
Tracknumber=01
Year=2019
Genre=Atmospheric Black Metal



Register


Go to the top of the page
  Insert nick Quick quote
+Quote Post
 
Start new topic
Replies (1 - 4)
post Jul 13 2019, 11:51:46
Post #2

Маньяк
**********
Group: Металариец
Posts: 1,101
Releases: 37
From: великий город Питер
On Forums: 13 years 10 months
Thanks: 1882 time(s)
Russian Federation




Thanks:
Go to the top of the page
  Insert nick Quick quote
+Quote Post
post Jul 14 2019, 00:06:41
Post #3

Это просто место… где все подошло к концу.
**************
Group: Металариец
Posts: 5,646
Releases: 0
From: Страны Мамонтов
On Forums: 12 years 8 months
Thanks: 2027 time(s)
Antarctica


Ну конечно, кто же перельет Hermodr на более приличный ресурс
Go to the top of the page
  Insert nick Quick quote
+Quote Post
post Jul 22 2019, 09:26:19
Post #4

Два Литра
**
Group: Завсегдатай
Posts: 186
Releases: 0
On Forums: 5 months 1 week
Thanks: 83 time(s)
Unknown


Hermóðr здесь просто (IMG:style_emoticons/default/pray.gif)
Кавер на финнов это огонь (IMG:style_emoticons/default/25.gif)
Go to the top of the page
  Insert nick Quick quote
+Quote Post
post Jul 22 2019, 10:19:30
Post #5

Правь статус, ####!111
**************
Group: Металариец
Posts: 43,942
Releases: 669
On Forums: 10 years 5 months
Thanks: 35204 time(s)
Russian Federation


ЦИТАТА(avather @ Jul 14 2019, 02:06:41) *
Ну конечно, кто же перельет Hermodr на более приличный ресурс


Нада?
Go to the top of the page
  Insert nick Quick quote
+Quote Post

Reply to this topicStart new topic
1 User(s) are reading this topic (1 Guests and 0 Anonymous Users)
0 Members:

 



- Lo-Fi Version Support form
Copyrights and abuse reports form
Time is now: 12th November 2019 - 20:18:41