Welcome Guest ( Log In | Register )

> Releases Upload / Добавление релизов

Добавить релиз тут / Click here to add release
Рекомендованные обменники / Recommended file shares

> Poems Of The Elder & Hermóðr - Midnight Sun [split] (2019), Atmospheric Black Metal | Atmospheric Black Metal (D5)
post Jul 12 2019, 21:15:42
Post #1

Литр
*
Group: Подсевший
Posts: 68
Releases: 30
On Forums: 3 months 6 days
Thanks: 446 time(s)
Unknown


(IMG:https://metalarea.org/images/audiocovers/2019_Jul/acov_tid324354_thumb.jpg)

*Artist: Poems Of The Elder & Hermóðr
*Album: Midnight Sun [split]
*Year: 2019
*Genre: Atmospheric Black Metal | Atmospheric Black Metal
*Country: Germany (IMG:https://metalarea.org/forum/style_images/flags/Germany.png) | Sweden (IMG:https://metalarea.org/forum/style_images/flags/Sweden.png)
*Format: mp3@CBR320kbps
*Size: 92MB

Tracklist:
Poems of the Elder:
1. Father's Burial Mound 9:26
2. Teutoburg Forest 8:35
3. The First Day of Breidablik 2:10

Hermóðr:
4. Hall of Heroes 03:46
5. Black Mountain 8:52
6. Beneath the Snow 4:08
7. White Death's Power (White Death cover) 3:16
******************************
Total playing time: 40:13

(IMG:https://metalarea.org/images/youtube.png)

Technical info
(IMG:https://metalarea.org/images/spectrogram/2019_Jul/dba6932110bbd7dfbc2899e17c958c3f.png)
Input File: 01 Poems of the Elder - Father\'s Burial Mound.mp3
Channels : 2
Sample Rate : 44100
Precision : 16-bit
Duration : 00:09:25.50 = 24938682 samples = 42412.7 CDDA sectors
File Size : 22.6M
Bit Rate : 320k
Sample Encoding: MPEG audio (layer I, II or III)
Comments :
Title=Father's Burial Mound
Artist=Poems of the Elder
Album=Midnight Sun
Tracknumber=01
Year=2019
Genre=Atmospheric Black Metal



Register


Go to the top of the page
  Insert nick Quick quote
+Quote Post
 
Start new topic
Replies (1 - 2)
post Jul 13 2019, 11:51:46
Post #2

Маньяк
**********
Group: Металариец
Posts: 1,067
Releases: 37
From: великий город Питер
On Forums: 13 years 7 months
Thanks: 1842 time(s)
Russian Federation




Thanks:
(1) sok,
Go to the top of the page
  Insert nick Quick quote
+Quote Post
post Jul 14 2019, 00:06:41
Post #3

Это просто место… где все подошло к концу.
**************
Group: Металариец
Posts: 5,543
Releases: 0
From: Страны Мамонтов
On Forums: 12 years 4 months
Thanks: 1949 time(s)
Antarctica


Ну конечно, кто же перельет Hermodr на более приличный ресурс
Go to the top of the page
  Insert nick Quick quote
+Quote Post

Reply to this topicStart new topic
1 User(s) are reading this topic (1 Guests and 0 Anonymous Users)
0 Members:

 



- Lo-Fi Version Support form
Copyrights and abuse reports form
Time is now: 18th July 2019 - 02:14:52