Welcome Guest ( Log In | Register )

> Releases Upload / Добавление релизов

Добавить релиз тут / Click here to add release
Рекомендованные обменники / Recommended file shares

> Sempiternal Dusk - Cenotaph Of Defectuous Creation (2019), Death/Doom Metal
post Jul 12 2019, 21:45:29
Post #1

Правь статус, ####!111
**************
Group: Металариец
Posts: 17,759
Releases: 12042
From: Г.Харьков
On Forums: 7 years 2 months
Thanks: 202152 time(s)
Unknown


(IMG:https://metalarea.org/images/audiocovers/2019_Jul/acov_tid324355_thumb.jpg)

*Artist: Sempiternal Dusk
*Album: Cenotaph Of Defectuous Creation
*Year: 2019
*Genre: Death/Doom Metal
*Country: United States (IMG:https://metalarea.org/forum/style_images/flags/United%20States.png)
*Format: mp3@CBR320kbps
*Size: 77MB

Tracklist:
1. Caverns of Aural Decay
2. Excavated Filth from Dimensional Incarnations
3. Orgiastic Feast upon Martyred Flesh
4. Beneath the Emblems of Death
5. Refracted Suffering Through the Windows of Hell
6. Spears of Pestilence
******************************
Total playing time: 35:12




Extended info
TG Bass
See also: Shroud of the Heretic
TC Drums, Vocals
See also: Aldebaran, Ardour Loom, Mournful Congregation, Nightfell, Terror Oath, The Howling Wind, The Warwolves, Weregoat, Saturnalia Temple (live), ex-Aghori, ex-Tusks of Blood, ex-Ealdath, Dolven, ex-Hail, ex-Shadow of the Torturer, ex-Splatterhouse
JH Guitars
See also: The Warwolves
VB Guitars (2014-present)
See also: Aldebaran, Weregoat, Nightfell (live), Vassafor (live), ex-Anhedonist, ex-Excommunion, ex-Shadow of the Torturer


Technical info
(IMG:https://metalarea.org/images/spectrogram/2019_Jul/ba0e7bc457db92683a06d4ca8b54e796.png)
Input File: 3. Orgiastic Feast Upon Martyred Flesh.mp3
Channels : 2
Sample Rate : 44100
Precision : 16-bit
Duration : 00:06:55.24 = 18311908 samples = 31142.7 CDDA sectors
File Size : 17.0M
Bit Rate : 328k
Sample Encoding: MPEG audio (layer I, II or III)
Comments :
Title=Orgiastic Feast Upon Martyred Flesh
Artist=Sempiternal Dusk
Album=Cenotaph Of Defectuous Creation
Tracknumber=3/6
Year=2019
Genre=Death Metal



Register


Go to the top of the page
  Insert nick Quick quote
+Quote Post
 
Start new topic
Replies (1 - 6)
post Jul 13 2019, 16:09:51
Post #2

Пять Литров
*****
Group: Металариец
Posts: 434
Releases: 1
From: АР Крым, Симферополь
On Forums: 11 years 3 months
Thanks: 156 time(s)
Russian Federation


Samaritianin, благодарочка за оперативный подгон!! (IMG:style_emoticons/default/m0114.gif) (IMG:style_emoticons/default/t2017.gif) (IMG:style_emoticons/default/metaler.gif) (IMG:style_emoticons/default/smile3.gif)
Крутые американцы, после отличного дебютника 2014-ого 5 лет пришлось ждать второго полноформата, но всё же он вышел, и вышел по правде сказать весьма хорош!! (IMG:style_emoticons/default/25.gif) (IMG:style_emoticons/default/metaler.gif) (IMG:style_emoticons/default/headcrab.png) (IMG:style_emoticons/default/27.gif) (IMG:style_emoticons/default/t2017.gif)


Thanks:
Go to the top of the page
  Insert nick Quick quote
+Quote Post
post Jul 13 2019, 16:55:59
Post #3

Три Литра
***
Group: Завсегдатай
Posts: 243
Releases: 2
From: Екатеринбург
On Forums: 9 years 7 months
Thanks: 87 time(s)
Russian Federation


lossless please
Go to the top of the page
  Insert nick Quick quote
+Quote Post
post Jul 13 2019, 17:33:27
Post #4

Правь статус, ####!111
**************
Group: Металариец
Posts: 17,759
Releases: 12042
From: Г.Харьков
On Forums: 7 years 2 months
Thanks: 202152 time(s)
Unknown


ЦИТАТА(deatholocaust @ 13th July 2019 - 16:55:59) *
lossless please

В день оф релиза (IMG:style_emoticons/default/bye.gif)


Thanks:
Go to the top of the page
  Insert nick Quick quote
+Quote Post
post Jul 14 2019, 12:07:00
Post #5

Шесть Литров
******
Group: Металариец
Posts: 522
Releases: 0
From: South Of Heaven
On Forums: 11 years 11 months
Thanks: 200 time(s)
Ukraine


- (IMG:style_emoticons/default/m1801.gif) Вот это вкусняшка !!! Слушаю второй трек и прусссь !!! (IMG:style_emoticons/default/metaler.gif)
Релизёру more (IMG:style_emoticons/default/9.gif) (IMG:style_emoticons/default/9.gif) (IMG:style_emoticons/default/9.gif)


Thanks:
Go to the top of the page
  Insert nick Quick quote
+Quote Post
post Jul 14 2019, 12:59:37
Post #6

Правь статус, ####!111
**************
Group: Металариец
Posts: 3,771
Releases: 0
From: Одесса
On Forums: 11 years 4 months
Thanks: 1848 time(s)
Unknown


Interesting release.
Go to the top of the page
  Insert nick Quick quote
+Quote Post
post Jul 15 2019, 19:42:18
Post #7

Шесть Литров
******
Group: Металариец
Posts: 522
Releases: 0
From: South Of Heaven
On Forums: 11 years 11 months
Thanks: 200 time(s)
Ukraine


Шикарный релиз ! (IMG:style_emoticons/default/metaler.gif) А трек "Spears of Pestilence" -так вообще просто 10 минут абсолютного кайфа!!! (IMG:style_emoticons/default/pray.gif)
Go to the top of the page
  Insert nick Quick quote
+Quote Post

Reply to this topicStart new topic
1 User(s) are reading this topic (1 Guests and 0 Anonymous Users)
0 Members:

 



- Lo-Fi Version Support form
Copyrights and abuse reports form
Time is now: 18th July 2019 - 02:23:34