Welcome Guest ( Log In | Register )

> Mind Key - Mkiii - Aliens In Wonderland (2019), Progressive Metal
post Jul 13 2019, 05:47:37
Post #1

Каждое ваше "Спасибо" помогает мне понять, что я делаю новости не напрасно.
**************
Group: Металариец
Posts: 2,063
Releases: 1811
From: Одесса
On Forums: 11 years 5 months
Thanks: 15679 time(s)
Ukraine


(IMG:http://metalarea.org/images/audiocovers/2019_Jul/acov_tid324360_thumb.jpg)

*Artist: Mind Key
*Album: Mkiii - Aliens In Wonderland
*Year: 2019
*Genre: Progressive Metal
*Country: Italy (IMG:http://metalarea.org/forum/style_images/flags/Italy.png)
*Format: mp3@CBR320kbps
*Size: 136MB

Tracklist:
1. Alien in Wonderland
2. Hank (The Blazing Eyes)
3. Hate at First Sight
4. Angry Men
5. Hands Off Cain
6. Be-Polar
7. Oblivion
8. Psycho World
9. Vertigo (Where the Cold Wind Blows)
10. Pure He/Art
11. Non-Existence
******************************
Total playing time: 57:42

(IMG:http://metalarea.org/images/youtube.png)

Extended info
FLAC RIP

Line - up:

Lucio Grilli - Bass (ex-Soul Secret)
Mirkko DeMaio - Drums
Emanuele Colella - Guitars
Dario De Cicco - Keyboards (ex-Silent Field)
Aurelio Fierro Jr. - Vocals

(IMG:https://www.metal-archives.com/images/2/2/6/5/22652_photo.jpg)



Technical info
(IMG:http://metalarea.org/images/spectrogram/2019_Jul/86a545f24dd1284cd536577f4debc726.png)
Input File: 02. Hank (The Blazing Eyes).mp3
Channels : 2
Sample Rate : 44100
Precision : 16-bit
Duration : 00:04:41.46 = 12412474 samples = 21109.6 CDDA sectors
File Size : 11.3M
Bit Rate : 320k
Sample Encoding: MPEG audio (layer I, II or III)
Comments :
Title=Hank (The Blazing Eyes)
Artist=Mind Key
Album=MK III - Aliens in Wonderland
Tracknumber=2
Year=2019
Genre=Progressive Metal



Register


Go to the top of the page
  Insert nick Quick quote
+Quote Post
 
Start new topic
Replies (1 - 2)
post Jul 13 2019, 12:06:51
Post #2

21st Century Schizoid Man
**************
Group: Металариец
Posts: 6,101
Releases: 76
From: Moscow
On Forums: 11 years 6 months
Thanks: 4813 time(s)
Russian Federation


Свистелки-перделки с претензией на мелодик, но парадокс - интересных мелодий не завезли. Ну и всё очень вторично.

Go to the top of the page
  Insert nick Quick quote
+Quote Post
post Jul 14 2019, 00:04:26
Post #3

Это просто место… где все подошло к концу.
**************
Group: Металариец
Posts: 5,647
Releases: 0
From: Страны Мамонтов
On Forums: 12 years 9 months
Thanks: 2028 time(s)
Antarctica


Знаешь, после того, как ты тут постил Kings X, таким предъявам нужна доказательная база
Go to the top of the page
  Insert nick Quick quote
+Quote Post

Reply to this topicStart new topic
1 User(s) are reading this topic (1 Guests and 0 Anonymous Users)
0 Members:

 



- Lo-Fi Version Support form
Copyrights and abuse reports form
Time is now: 21st November 2019 - 21:45:32