Welcome Guest ( Log In | Register )

 
Reply to this topicStart new topic
> Torche - Admission (2019), Stoner Metal/Sludge/Rock (D)
post Jul 13 2019, 06:33:13
Post #1

Каждое ваше "Спасибо" помогает мне понять, что я делаю новости не напрасно.
**************
Group: Металариец
Posts: 2,063
Releases: 1811
From: Одесса
On Forums: 11 years 5 months
Thanks: 15679 time(s)
Ukraine


(IMG:http://metalarea.org/images/audiocovers/2019_Jul/acov_tid324361_thumb.jpg)

*Artist: Torche
*Album: Admission
*Year: 2019
*Genre: Stoner Metal/Sludge/Rock
*Country: United States (IMG:http://metalarea.org/forum/style_images/flags/United%20States.png)
*Format: mp3@CBR320kbps
*Size: 86MB

Tracklist:
1. From Here 01:38
2. Submission 02:59
3. Slide 02:52
4. What Was 01:29
5. Times Missing 05:04
6. Admission 04:00
7. Reminder 02:58
8. Extremes of Consciousness 02:58
9. On the Wire 03:18
10. Infierno 03:31
11. Changes Come 05:13
******************************
Total playing time: 36:00



Extended info
Line - up:

Jon Nunez - Guitars (Shitstorm, ex-Adore Miridia, ex-Tyranny of Shaw)
Rick Smith - Drums (Caveman Cult, Cavity, Field, House of Lightning, Shitstorm, ex-Mehkago N.T., ex-Tunes for Bears to Dance to, ex-Tyranny of Shaw)
Steve Brooks - Guitars, Vocals (Floor, ex-Cavity)
Andres Ascanio - Bass

(IMG:https://f4.bcbits.com/img/0016404149_10.jpg)


Technical info
(IMG:http://metalarea.org/images/spectrogram/2019_Jul/2f10412e4ca90fcf773712ff3a243b56.png)
Input File: 02 Submission.mp3
Channels : 2
Sample Rate : 48000
Precision : 16-bit
Duration : 00:02:58.85 = 8584848 samples ~ 13413.8 CDDA sectors
File Size : 7.19M
Bit Rate : 322k
Sample Encoding: MPEG audio (layer I, II or III)
Comments :
Title=Submission
Artist=Torche
Album=Admission
Tracknumber=2
Year=2019
Genre=Stoner/Sludge Metal/Rock



Register


Go to the top of the page
  Insert nick Quick quote
+Quote Post

Reply to this topicStart new topic
1 User(s) are reading this topic (1 Guests and 0 Anonymous Users)
0 Members:

 



- Lo-Fi Version Support form
Copyrights and abuse reports form
Time is now: 21st November 2019 - 21:46:00