Welcome Guest ( Log In | Register )

 
Reply to this topicStart new topic
> The Love Team - Hopeless (2019), Stoner Rock/Metal
post Jul 13 2019, 08:44:52
Post #1

Cultist
**************
Group: Металариец
Posts: 4,170
Releases: 1319
From: Koenigsberg
On Forums: 12 years 10 months
Thanks: 8286 time(s)
Russian Federation


(IMG:http://metalarea.org/images/audiocovers/2019_Jul/acov_tid324363_thumb.jpg)

*Artist: The Love Team
*Album: Hopeless
*Year: 2019
*Genre: Stoner Rock/Metal
*Country: United States (IMG:http://metalarea.org/forum/style_images/flags/United%20States.png)
*Format: mp3@CBR320kbps
*Size: 102MB

Tracklist:
1. Intro 02:18
2. Thrash Don't Pay the Bills 03:28
3. The Bastards Always Win 03:29
4. This Song Sucks 03:22
5. The Bourgeois Boogie 02:48
6. Uncomfortable 02:27
7. Beat My Ass to Death 02:30
8. Mighty Whitey 03:57
9. I'm Sorry 01:37
10. Grease 03:26
11. Existence Is a Sin 03:54
12. S.M.P. 04:08
13. Every Day Is a Struggle 04:16
14. Hopeless 02:30
******************************
Total playing time: 44:10



Technical info
(IMG:http://metalarea.org/images/spectrogram/2019_Jul/4a0203e71f33cd0497b473254b099c9c.png)
Input File: 06 - Uncomfortable.mp3
Channels : 2
Sample Rate : 44100
Precision : 16-bit
Duration : 00:02:27.79 = 6517363 samples = 11084 CDDA sectors
File Size : 5.98M
Bit Rate : 323k
Sample Encoding: MPEG audio (layer I, II or III)
Comments :
Title=Uncomfortable
Artist=The Love Team
Album=Hopeless
Tracknumber=6
Year=2019
Genre=Stoner Rock/Metal



Register


Thanks:
Go to the top of the page
  Insert nick Quick quote
+Quote Post

Reply to this topicStart new topic
1 User(s) are reading this topic (1 Guests and 0 Anonymous Users)
0 Members:

 



- Lo-Fi Version Support form
Copyrights and abuse reports form
Time is now: 21st November 2019 - 22:01:37