Welcome Guest ( Log In | Register )

> Releases Upload / Добавление релизов

Добавить релиз тут / Click here to add release
Рекомендованные обменники / Recommended file shares

> Spiral Skies - A Queendome To Come [ep] (2015), Psychedelic Rock/Doom Metal
post Jul 13 2019, 08:49:28
Post #1

Cultist
**************
Group: Металариец
Posts: 3,636
Releases: 1185
From: Koenigsberg
On Forums: 12 years 6 months
Thanks: 6717 time(s)
Russian Federation


(IMG:http://metalarea.org/images/audiocovers/2019_Jul/acov_tid324364_thumb.jpg)

*Artist: Spiral Skies
*Album: A Queendome To Come [ep]
*Year: 2015
*Genre: Psychedelic Rock/Doom Metal
*Country: Sweden (IMG:http://metalarea.org/forum/style_images/flags/Sweden.png)
*Format: mp3@CBR320kbps
*Size: 49MB

Tracklist:
1. A Queendom to Come 01:25
2. Left Is Right and Right Is Left Behind 04:28
3. The Final Set 05:18
4. The Wizard's Ball 05:24
5. Labyrinth of the Mind 05:08
******************************
Total playing time: 21:43



Technical info
(IMG:http://metalarea.org/images/spectrogram/2019_Jul/36353d1ef4f77c9fdf262ec40df4a446.png)
Input File: 03 - The Final Set.mp3
Channels : 2
Sample Rate : 44100
Precision : 16-bit
Duration : 00:05:19.03 = 14069135 samples = 23927.1 CDDA sectors
File Size : 12.9M
Bit Rate : 323k
Sample Encoding: MPEG audio (layer I, II or III)
Comments :
Title=The Final Set
Artist=Spiral Skies
Album=A Queendom To Come EP
Tracknumber=3/5
Year=2015
Genre=Psychedelic Rock/Doom Metal
Discnumber=1



Register


Go to the top of the page
  Insert nick Quick quote
+Quote Post
 
Start new topic
Replies (1 - 4)
post Jul 14 2019, 12:33:04
Post #2

Три Литра
***
Group: Завсегдатай
Posts: 215
Releases: 0
From: Минск
On Forums: 8 years 2 months
Thanks: 138 time(s)
Russian Federation


Уж простите великодушно. Где тут дум-метал. Какой-то недопсиходелик рок а-ля 80-ые с вумен-унылым вокалом. Неформатище.
Go to the top of the page
  Insert nick Quick quote
+Quote Post
post Jul 14 2019, 18:20:27
Post #3

Cultist
**************
Group: Металариец
Posts: 3,636
Releases: 1185
From: Koenigsberg
On Forums: 12 years 6 months
Thanks: 6717 time(s)
Russian Federation


ЦИТАТА(merfo @ Jul 14 2019, 14:33:04) *
Уж простите великодушно. Где тут дум-метал. Какой-то недопсиходелик рок а-ля 80-ые с вумен-унылым вокалом. Неформатище.

на форуме в форматных релизах группа есть, это раз
на метал-архивах тоже есть, это два
Go to the top of the page
  Insert nick Quick quote
+Quote Post
post Jul 14 2019, 19:56:33
Post #4

Три Литра
***
Group: Завсегдатай
Posts: 215
Releases: 0
From: Минск
On Forums: 8 years 2 months
Thanks: 138 time(s)
Russian Federation


ЦИТАТА(TDM @ Jul 14 2019, 20:20:27) *
на форуме в форматных релизах группа есть, это раз
на метал-архивах тоже есть, это два

В таком случае для меня очевидно, что в обоих случаях произошла ошибка (IMG:style_emoticons/default/1488.gif)
Да пусть себе будут. Я просто врубил и никак не мог понять, а что это я такое включил за радио 80-ых, волна для укурышей... Peace (IMG:style_emoticons/default/1488.gif)
(IMG:style_emoticons/default/9.gif)
Go to the top of the page
  Insert nick Quick quote
+Quote Post
post Jul 14 2019, 20:13:05
Post #5

Cultist
**************
Group: Металариец
Posts: 3,636
Releases: 1185
From: Koenigsberg
On Forums: 12 years 6 months
Thanks: 6717 time(s)
Russian Federation


Тут на ипишке действительно все плохо в плане дума, это позже они митола прилично добавили.
Go to the top of the page
  Insert nick Quick quote
+Quote Post

Reply to this topicStart new topic
1 User(s) are reading this topic (1 Guests and 0 Anonymous Users)
0 Members:

 



- Lo-Fi Version Support form
Copyrights and abuse reports form
Time is now: 18th July 2019 - 01:40:32