Welcome Guest ( Log In | Register )

> Releases Upload / Добавление релизов

Добавить релиз тут / Click here to add release
Рекомендованные обменники / Recommended file shares

> Bad Acid - Revelations Of The Third Eye (2016), Psychedelic Rock/Stoner Metal
post Jul 13 2019, 08:53:56
Post #1

Cultist
**************
Group: Металариец
Posts: 3,636
Releases: 1185
From: Koenigsberg
On Forums: 12 years 6 months
Thanks: 6717 time(s)
Russian Federation


(IMG:http://metalarea.org/images/audiocovers/2019_Jul/acov_tid324365_thumb.jpg)

*Artist: Bad Acid
*Album: Revelations Of The Third Eye
*Year: 2016
*Genre: Psychedelic Rock/Stoner Metal
*Country: Sweden (IMG:http://metalarea.org/forum/style_images/flags/Sweden.png)
*Format: mp3@CBR320kbps
*Size: 99MB

Tracklist:
1. Intro/Inferno 06:24
2. Amnesia Haze 03:14
3. Revelations of the Third Eye 07:21
4. The Oldest Lie 04:56
5. Heavy Lies the Crown 07:10
6. Bad Acid 05:18
7. Spellbound 08:28
******************************
Total playing time: 42:51

Technical info
(IMG:http://metalarea.org/images/spectrogram/2019_Jul/e68daf67b512f748f3cb9801c3e77dbd.png)
Input File: 05 - Heavy Lies The Crown.mp3
Channels : 2
Sample Rate : 44100
Precision : 16-bit
Duration : 00:07:13.19 = 19103635 samples = 32489.2 CDDA sectors
File Size : 17.5M
Bit Rate : 322k
Sample Encoding: MPEG audio (layer I, II or III)
Comments :
Title=Heavy Lies The Crown
Artist=Bad Acid
Album=Revelations Of The Third Eye
Tracknumber=5
Year=2016
Genre=Psychedelic Rock/Stoner Metal



Register


Go to the top of the page
  Insert nick Quick quote
+Quote Post
 
Start new topic
Replies (1 - 1)
post Jul 14 2019, 01:55:46
Post #2

South Of Heaven /адепт ВУДУ
**************
Group: Металариец
Posts: 13,658
Releases: 9
On Forums: 9 years 3 months
Thanks: 5071 time(s)
Unknown




Thanks:
Go to the top of the page
  Insert nick Quick quote
+Quote Post

Reply to this topicStart new topic
1 User(s) are reading this topic (1 Guests and 0 Anonymous Users)
0 Members:

 



- Lo-Fi Version Support form
Copyrights and abuse reports form
Time is now: 18th July 2019 - 01:47:56