Welcome Guest ( Log In | Register )

 
Reply to this topicStart new topic
> Krueger - Turn On To Death (2001), Death/Thrash Metal (D8)
post Jul 13 2019, 08:54:10
Post #1

Подвал
**************
Group: Металариец
Posts: 13,784
Releases: 7808
From: Far East (Khabarovsk)
On Forums: 10 years 9 months
Thanks: 75979 time(s)
Russian Federation


(IMG:http://metalarea.org/images/audiocovers/2019_Jul/acov_tid324366_thumb.jpg)

*Artist: Krueger
*Album: Turn On To Death
*Year: 2001
*Genre: Death/Thrash Metal
*Country: Brazil (IMG:http://metalarea.org/forum/style_images/flags/Brazil.png)
*Format: mp3@CBR192kbps
*Size: 63MB

Tracklist:
1. Money World 03:36
2. Subconscious Visions 04:28
3. Life And Death 04:49
4. Self Discovery 05:07
5. Suicide Is A Weakness 04:51
6. The Real Side 02:52
7. My Picture 04:24
8. After The War 02:48
9. A Piece Of Land 07:02
10. The Sexual Malediction 07:13
******************************
Total playing time: 47:10





Extended info
Recorded at Prosound Studio (Campina Grande/SP).
Mixed at Hanoi Studio (Rio de Janeiro/RJ).
Mastered at Manhattan Studio (Rio de Janeiro/RJ).


Technical info
(IMG:http://metalarea.org/images/spectrogram/2019_Jul/6b3c6c96e82b73b7494de8886ff0c217.png)
Input File: 01-Money World.mp3
Channels : 2
Sample Rate : 44100
Precision : 16-bit
Duration : 00:03:38.79 = 9648507 samples = 16409 CDDA sectors
File Size : 5.25M
Bit Rate : 192k
Sample Encoding: MPEG audio (layer I, II or III)
Comments :
Title=Money World
Artist=Krueger (Bra)
Album=Turn On To Death
Tracknumber=01
Year=2001
Genre=Death Metal



Register


Go to the top of the page
  Insert nick Quick quote
+Quote Post

Reply to this topicStart new topic
1 User(s) are reading this topic (1 Guests and 0 Anonymous Users)
0 Members:

 



- Lo-Fi Version Support form
Copyrights and abuse reports form
Time is now: 12th November 2019 - 19:50:03