Welcome Guest ( Log In | Register )

 
Reply to this topicStart new topic
> Korrosion - Tragando Mierda [demo] (1993), Thrash Metal/Crossover
post Jul 13 2019, 09:31:59
Post #1

Подвал
**************
Group: Металариец
Posts: 13,784
Releases: 7808
From: Far East (Khabarovsk)
On Forums: 10 years 9 months
Thanks: 75979 time(s)
Russian Federation


(IMG:http://metalarea.org/images/audiocovers/2019_Jul/acov_tid324368_thumb.jpg)

*Artist: Korrosion
*Album: Tragando Mierda [demo]
*Year: 1993
*Genre: Thrash Metal/Crossover
*Country: Spain (IMG:http://metalarea.org/forum/style_images/flags/Spain.png)
*Format: mp3@VBR160kbps (IMG:http://metalarea.org/images/bit_low.gif)
*Size: 17MB

Tracklist:
1. Intro: Tragando Mierda 01:07
2. Vomitona En El McDonalds 02:49
3. La Nueva Religión 02:35
4. Korneto 00:05
5. M.A.D. 03:02
6. La Puta Refinería 03:57
7. Un Día En El Congreso 00:35
8. Vatikano Boyz 00:32
9. ¿...? 00:32
******************************
Total playing time: 15:14

Technical info
(IMG:http://metalarea.org/images/spectrogram/2019_Jul/f5fdbca529b4876f553b88cf6e4a702d.png)
Input File: 02-Vomitona En El McDonalds.mp3
Channels : 2
Sample Rate : 44100
Precision : 16-bit
Duration : 00:02:53.19 = 7637723 samples = 12989.3 CDDA sectors
File Size : 3.31M
Bit Rate : 153k
Sample Encoding: MPEG audio (layer I, II or III)
Comments :
Title=Vomitona En El McDonalds
Artist=Korrosion (Spa)
Album=Tragando Mierda (Demo)
Tracknumber=02
Year=1993
Genre=Metal



Register


Go to the top of the page
  Insert nick Quick quote
+Quote Post

Reply to this topicStart new topic
1 User(s) are reading this topic (1 Guests and 0 Anonymous Users)
0 Members:

 



- Lo-Fi Version Support form
Copyrights and abuse reports form
Time is now: 12th November 2019 - 20:14:04