Welcome Guest ( Log In | Register )

 
Reply to this topicStart new topic
> Angel Powder - Beyond The Decay [demo] (1990), Speed/Thrash Metal
post Jul 13 2019, 09:47:19
Post #1

Подвал
**************
Group: Металариец
Posts: 13,548
Releases: 7681
From: Far East (Khabarovsk)
On Forums: 10 years 5 months
Thanks: 73678 time(s)
Russian Federation


(IMG:http://metalarea.org/images/audiocovers/2019_Jul/acov_tid324369_thumb.jpg)

*Artist: Angel Powder
*Album: Beyond The Decay [demo]
*Year: 1990
*Genre: Speed/Thrash Metal
*Country: France (IMG:http://metalarea.org/forum/style_images/flags/France.png)
*Format: mp3@CBR192kbps
*Size: 21MB

Tracklist:
1. So Perfect 05:12
2. Fit Of Madness 03:42
3. Decayed World 06:05
******************************
Total playing time: 14:59

Technical info
(IMG:http://metalarea.org/images/spectrogram/2019_Jul/4cb8574254a346bed8309f182257348c.png)
Input File: 01-So Perfect.mp3
Channels : 2
Sample Rate : 44100
Precision : 16-bit
Duration : 00:05:12.36 = 13775076 samples = 23427 CDDA sectors
File Size : 7.50M
Bit Rate : 192k
Sample Encoding: MPEG audio (layer I, II or III)
Comments :
Title=So Perfect
Artist=Angel Powder (Fra)
Album=Beyond The Decay (Demo)
Tracknumber=01
Year=1990
Genre=Thrash Metal



Register


Go to the top of the page
  Insert nick Quick quote
+Quote Post

Reply to this topicStart new topic
1 User(s) are reading this topic (1 Guests and 0 Anonymous Users)
0 Members:

 



- Lo-Fi Version Support form
Copyrights and abuse reports form
Time is now: 18th July 2019 - 02:20:04