Welcome Guest ( Log In | Register )

> Releases Upload / Добавление релизов

Добавить релиз тут / Click here to add release
Рекомендованные обменники / Recommended file shares

 
Reply to this topicStart new topic
> Heinous - Lucifer Vult [ep] (2019), Black Metal (D8)
post Jul 13 2019, 10:01:23
Post #1

Мегаманьяк
***********
Group: Металариец
Posts: 1,725
Releases: 1365
From: Prešov
On Forums: 5 years 3 months
Thanks: 32856 time(s)
Slovakia


(IMG:http://metalarea.org/images/audiocovers/2019_Jul/acov_tid324370_thumb.jpg)

*Artist: Heinous
*Album: Lucifer Vult [ep]
*Year: 2019
*Genre: Black Metal
*Country: Belgium (IMG:http://metalarea.org/forum/style_images/flags/Belgium.png)
*Format: mp3@CBR320kbps
*Size: 23MB

Tracklist:
1. Temple's Fall 04:01
2. Maudits 04:58
******************************
Total playing time: 8:59



Extended info
New Era Productions / Medieval Prophecy Records
7'' EP


Technical info
(IMG:http://metalarea.org/images/spectrogram/2019_Jul/78aaf90ed07736ca61babfb18565e63e.png)
Input File: 01. Temple\'s Fall.mp3
Channels : 2
Sample Rate : 44100
Precision : 16-bit
Duration : 00:04:01.49 = 10649797 samples = 18111.9 CDDA sectors
File Size : 9.82M
Bit Rate : 325k
Sample Encoding: MPEG audio (layer I, II or III)
Comments :
Title=Temple's Fall
Artist=Heinous
Album=Lucifer Vult
Tracknumber=01/02
Year=2019
Genre=Black Metal



Register


Go to the top of the page
  Insert nick Quick quote
+Quote Post

Reply to this topicStart new topic
1 User(s) are reading this topic (1 Guests and 0 Anonymous Users)
0 Members:

 



- Lo-Fi Version Support form
Copyrights and abuse reports form
Time is now: 18th July 2019 - 01:51:02