Welcome Guest ( Log In | Register )

> Bestiis Dare - Odio [ep] (2019), Black Metal
post Jul 13 2019, 10:20:45
Post #1

Мегаманьяк
***********
Group: Металариец
Posts: 1,819
Releases: 1437
From: Prešov
On Forums: 5 years 7 months
Thanks: 35061 time(s)
Slovakia


(IMG:http://metalarea.org/images/audiocovers/2019_Jul/acov_tid324371_thumb.jpg)

*Artist: Bestiis Dare
*Album: Odio [ep]
*Year: 2019
*Genre: Black Metal
*Country: International (IMG:http://metalarea.org/forum/style_images/flags/International.png)
*Format: mp3@CBR320kbps
*Size: 54MB

Tracklist:
1. Garden of Asphodel 04:53
2. Creatures of Hades 04:00
3. Pain and Torture 04:56
4. Glory of the Beast 04:08
5. The Emperor Above 05:21
******************************
Total playing time: 23:18

Technical info
(IMG:http://metalarea.org/images/spectrogram/2019_Jul/546406aeb1d5dc26906faaac40ca0794.png)
Input File: 04. Glory of the Beast.mp3
Channels : 2
Sample Rate : 44100
Precision : 16-bit
Duration : 00:04:07.75 = 10925863 samples = 18581.4 CDDA sectors
File Size : 10.0M
Bit Rate : 324k
Sample Encoding: MPEG audio (layer I, II or III)
Comments :
Title=Glory of the Beast
Artist=Bestiis Dare
Album=Odio
Tracknumber=04/05
Year=2019
Genre=Black Metal



Register


Go to the top of the page
  Insert nick Quick quote
+Quote Post
 
Start new topic
Replies (1 - 2)
post Jul 14 2019, 08:47:50
Post #2

While Waiting the Worms
*********
Group: Металариец
Posts: 907
Releases: 0
On Forums: 5 years 10 months
Thanks: 1225 time(s)
Unknown




Thanks:
Go to the top of the page
  Insert nick Quick quote
+Quote Post
post Jul 14 2019, 09:50:47
Post #3

Правь статус, ####!111
**************
Group: Металариец
Posts: 4,207
Releases: 0
From: Одесса
On Forums: 11 years 8 months
Thanks: 2464 time(s)
Unknown


A generic slab of black metal. They avoided the plastic double bass at least. Nothing outstanding.
Go to the top of the page
  Insert nick Quick quote
+Quote Post

Reply to this topicStart new topic
1 User(s) are reading this topic (1 Guests and 0 Anonymous Users)
0 Members:

 



- Lo-Fi Version Support form
Copyrights and abuse reports form
Time is now: 12th November 2019 - 19:54:51