Welcome Guest ( Log In | Register )

 
Reply to this topicStart new topic
> Human Hate - Lost In The Abyss [single] (1991), Thrash Metal (D5)
post Jul 13 2019, 10:21:44
Post #1

Подвал
**************
Group: Металариец
Posts: 13,784
Releases: 7808
From: Far East (Khabarovsk)
On Forums: 10 years 9 months
Thanks: 75979 time(s)
Russian Federation


(IMG:http://metalarea.org/images/audiocovers/2019_Jul/acov_tid324372_thumb.jpg)

*Artist: Human Hate
*Album: Lost In The Abyss [single]
*Year: 1991
*Genre: Thrash Metal
*Country: Brazil (IMG:http://metalarea.org/forum/style_images/flags/Brazil.png)
*Format: mp3@CBR320kbps
*Size: 19MB

Tracklist:
1. Slaves Of Violence 02:47
2. Who Is Patriot? 01:33
3. Putrefaction 00:35
4. The Homicide 03:49
******************************
Total playing time: 8:44



Extended info
Recorded and mixed in 108 Studio - BH, November - 1990.
Thanks T-Mag crew for original post.


Technical info
(IMG:http://metalarea.org/images/spectrogram/2019_Jul/4f37830f207301383a818fa30006cfb3.png)
Input File: 01-Human Hate.mp3
Channels : 2
Sample Rate : 48000
Precision : 16-bit
Duration : 00:02:45.48 = 7943184 samples ~ 12411.2 CDDA sectors
File Size : 6.72M
Bit Rate : 325k
Sample Encoding: MPEG audio (layer I, II or III)
Comments :
Title=Human Hate
Artist=Human Hate
Album=Lost In the Abyss (EP)
Tracknumber=01
Year=1991
Genre=Thrash Metal



Register


Go to the top of the page
  Insert nick Quick quote
+Quote Post

Reply to this topicStart new topic
1 User(s) are reading this topic (1 Guests and 0 Anonymous Users)
0 Members:

 



- Lo-Fi Version Support form
Copyrights and abuse reports form
Time is now: 12th November 2019 - 20:06:55