Welcome Guest ( Log In | Register )

 
Reply to this topicStart new topic
> Primogenorum - Ye Last Ordeal [ep] (2019), Raw Black Metal/Noise (D)
post Jul 13 2019, 11:32:55
Post #1

Oax Moax Voax
****
Group: Металариец
Posts: 370
Releases: 6
From: UKR
On Forums: 10 years 11 months
Thanks: 625 time(s)
Ukraine


(IMG:https://metalarea.org/images/audiocovers/2019_Jul/acov_tid324374_thumb.jpg)

*Artist: Primogenorum
*Album: Ye Last Ordeal [ep]
*Year: 2019
*Genre: Raw Black Metal/Noise
*Country: Ukraine (IMG:https://metalarea.org/forum/style_images/flags/Ukraine.png)
*Format: mp3@CBR192kbps
*Size: 30MB

Tracklist:
1. Trail Of Black Fire
2. Ominous Nights
3. On The Ground Of The Dying Man
4. Sacrilegious Atrocity
******************************
Total playing time: 21:09

Technical info
(IMG:https://metalarea.org/images/spectrogram/2019_Jul/15b19c832c811dfe34422e1422be274e.png)
Input File: 1. Trail Of Black Fire.mp3
Channels : 2
Sample Rate : 44100
Precision : 16-bit
Duration : 00:05:12.17 = 13766785 samples = 23412.9 CDDA sectors
File Size : 7.49M
Bit Rate : 192k
Sample Encoding: MPEG audio (layer I, II or III)
Comment : 'Year=2019'



Register


Go to the top of the page
  Insert nick Quick quote
+Quote Post

Reply to this topicStart new topic
1 User(s) are reading this topic (1 Guests and 0 Anonymous Users)
0 Members:

 



- Lo-Fi Version Support form
Copyrights and abuse reports form
Time is now: 12th November 2019 - 20:30:26