Welcome Guest ( Log In | Register )

> Releases Upload / Добавление релизов

Добавить релиз тут / Click here to add release
Рекомендованные обменники / Recommended file shares

> Edge Of Obsolescence - Undone [ep] (2019), Death Metal
post Jul 13 2019, 14:03:53
Post #1

Правь статус, ####!111
**************
Group: Металариец
Posts: 17,759
Releases: 12042
From: Г.Харьков
On Forums: 7 years 2 months
Thanks: 202149 time(s)
Unknown


(IMG:https://metalarea.org/images/audiocovers/2019_Jul/acov_tid324377_thumb.jpg)

*Artist: Edge Of Obsolescence
*Album: Undone [ep]
*Year: 2019
*Genre: Death Metal
*Country: Sweden (IMG:https://metalarea.org/forum/style_images/flags/Sweden.png)
*Format: mp3@CBR320kbps
*Size: 46MB

Tracklist:
1. Quasar 03:30
2. Point of No Return 04:25
3. Lamentation 03:04
4. Congenital Evil 04:24
5. Cenotaph (Bolt Thrower cover) 04:15
******************************
Total playing time: 19:38



Extended info
Dan Lundberg Vocals, all Instruments
See also: ex-Genesis of Pain, ex-Shubend


Technical info
(IMG:https://metalarea.org/images/spectrogram/2019_Jul/d140727d0e756f2485267d361a6667dc.png)
Input File: 02. Point of No Return.mp3
Channels : 2
Sample Rate : 48000
Precision : 16-bit
Duration : 00:04:26.04 = 12770064 samples ~ 19953.2 CDDA sectors
File Size : 10.8M
Bit Rate : 325k
Sample Encoding: MPEG audio (layer I, II or III)
Comments :
Title=Point of No Return
Artist=Edge of Obsolescence
Album=Undone
Tracknumber=2
Year=2019
Genre=Death



Register


Go to the top of the page
  Insert nick Quick quote
+Quote Post
 
Start new topic
Replies (1 - 3)
post Yesterday, 20:38:06
Post #2

MDM-Thrash Metal
**************
Group: Металариец
Posts: 8,332
Releases: 494
From: Одесса
On Forums: 11 years 11 months
Thanks: 15769 time(s)
Ukraine


Один из редких случаев, когда One Man Band - а сделано довольно таки неплохо.
Go to the top of the page
  Insert nick Quick quote
+Quote Post
post Yesterday, 20:38:58
Post #3

Правь статус, ####!111
**************
Group: Металариец
Posts: 41,178
Releases: 605
On Forums: 10 years 1 month
Thanks: 31826 time(s)
Russian Federation


ЦИТАТА(Andrew @ Jul 17 2019, 23:38:06) *
Один из редких случаев, когда One Man Band - а сделано довольно таки неплохо.


Много хороший ван мэн бэндов, не надо (IMG:style_emoticons/default/bye.gif)
Go to the top of the page
  Insert nick Quick quote
+Quote Post
post Yesterday, 23:08:58
Post #4

Маньяк
**********
Group: Металариец
Posts: 1,410
Releases: 0
On Forums: 10 years 4 months
Thanks: 522 time(s)
Antarctica


ЦИТАТА(vosmidesijatye @ 17th July 2019 - 22:38:58) *
Много хороший ван мэн бэндов, не надо

Некоторые OMB тянут первый эшелон за собой.
Go to the top of the page
  Insert nick Quick quote
+Quote Post

Reply to this topicStart new topic
1 User(s) are reading this topic (1 Guests and 0 Anonymous Users)
0 Members:

 



- Lo-Fi Version Support form
Copyrights and abuse reports form
Time is now: 18th July 2019 - 01:30:32