Welcome Guest ( Log In | Register )

> Korrosion - Pudrete [demo] (1992), Thrash Metal/Crossover
post Jul 13 2019, 14:20:30
Post #1

Подвал
**************
Group: Металариец
Posts: 13,548
Releases: 7681
From: Far East (Khabarovsk)
On Forums: 10 years 5 months
Thanks: 73678 time(s)
Russian Federation


(IMG:http://metalarea.org/images/audiocovers/2019_Jul/acov_tid324378_thumb.PNG)

*Artist: Korrosion
*Album: Pudrete [demo]
*Year: 1992
*Genre: Thrash Metal/Crossover
*Country: Spain (IMG:http://metalarea.org/forum/style_images/flags/Spain.png)
*Format: mp3@CBR160kbps (IMG:http://metalarea.org/images/bit_low.gif)
*Size: 16MB

Tracklist:
1. Sentenciado A Muerte 03:32
2. Living In Trench 04:37
3. Se Ke Hay Un Lugar 02:36
4. Pudrete 00:13
******************************
Total playing time: 10:58

Technical info
(IMG:http://metalarea.org/images/spectrogram/2019_Jul/c81a079591a89c5a05578585e57bb4d2.png)
Input File: 01-Sentenciando A Muerte.mp3
Channels : 2
Sample Rate : 44100
Precision : 16-bit
Duration : 00:03:32.39 = 9366179 samples = 15928.9 CDDA sectors
File Size : 4.25M
Bit Rate : 160k
Sample Encoding: MPEG audio (layer I, II or III)
Comments :
Title=Sentenciando A Muerte
Artist=Korrosion (Spa)
Album=Pudrete (Demo)
Tracknumber=01
Year=1992
Genre=Thrash Metal



Register


Go to the top of the page
  Insert nick Quick quote
+Quote Post
 
Start new topic
Replies (1 - 2)
post Jul 14 2019, 08:37:11
Post #2

Подвал
**************
Group: Металариец
Posts: 13,548
Releases: 7681
From: Far East (Khabarovsk)
On Forums: 10 years 5 months
Thanks: 73678 time(s)
Russian Federation


"Sin Lechuga" 1992 demo (6 trax, 56MB):
Register



Thanks:
Go to the top of the page
  Insert nick Quick quote
+Quote Post
post Jul 14 2019, 11:03:25
Post #3

Четыре Литра
****
Group: Металариец
Posts: 329
Releases: 0
On Forums: 5 years 10 months
Thanks: 88 time(s)
Spain


QUOTE(Proteus_666 @ Jul 14 2019, 09:37:11) *
"Sin Lechuga" 1992 demo (6 trax, 56MB):


Register


Go to the top of the page
  Insert nick Quick quote
+Quote Post

Reply to this topicStart new topic
1 User(s) are reading this topic (1 Guests and 0 Anonymous Users)
0 Members:

 



- Lo-Fi Version Support form
Copyrights and abuse reports form
Time is now: 18th July 2019 - 01:37:48