Welcome Guest ( Log In | Register )

> И неформату есть предел.

Рэп/хип-хоп/шансон/поп удаляются. Для них есть свои порталы.

 
Reply to this topicStart new topic
> Non - In The Shadow Of The Sword (1992), Industrial/Martial Industrial/Noise/Dark Ambient (D5)
post Jul 13 2019, 14:30:28
Post #1

Три Литра
***
Group: Завсегдатай
Posts: 240
Releases: 0
On Forums: 2 months 1 week
Thanks: 132 time(s)
Russian Federation


(IMG:https://metalarea.org/images/audiocovers/2019_Jul/acov_tid324379_thumb.jpg)

*Artist: Non
*Album: In The Shadow Of The Sword
*Year: 1992
*Genre: Industrial/Martial Industrial/Noise/Dark Ambient
*Country: United States (IMG:https://metalarea.org/forum/style_images/flags/United%20States.png)
*Format: mp3@VBR288kbps
*Size: 88MB

Tracklist:
1. Introduction / Total War 5:23
2. Eternal Ice 1:03
3. Sunrise / Fire in the Organism / Vengeance 5:25
4. Without Judgement 1:50
5. Scorched Earth 3:07
6. Invocation 0:57
7. Abraxas 5:24
8. Prey 6:17
9. The Time will Come 4:20
10. Number One Law 2:29
11. A World on Fire 3:18
12. Love and Love's Murder 2:21
******************************
Total playing time: 41:54

(IMG:https://metalarea.org/images/youtube.png)

Technical info
(IMG:https://metalarea.org/images/spectrogram/2019_Jul/b6083c2562ad5056efd80f60ce9290b9.png)
Input File: 01. Introduction Total War.mp3
Channels : 2
Sample Rate : 44100
Precision : 16-bit
Duration : 00:05:23.97 = 14286857 samples = 24297.4 CDDA sectors
File Size : 13.0M
Bit Rate : 320k
Sample Encoding: MPEG audio (layer I, II or III)
Comments :
Title=Introduction / Total War
Artist=NON
Album=In The Shadow Of The Sword
Tracknumber=01
Year=1992



Register


Go to the top of the page
  Insert nick Quick quote
+Quote Post

Reply to this topicStart new topic
1 User(s) are reading this topic (1 Guests and 0 Anonymous Users)
0 Members:

 



- Lo-Fi Version Support form
Copyrights and abuse reports form
Time is now: 20th August 2019 - 21:51:29