Welcome Guest ( Log In | Register )

> Releases Upload / Добавление релизов

Добавить релиз тут / Click here to add release
Рекомендованные обменники / Recommended file shares

> Benedict Crow - Benedict Crow (2019), Hard Rock/Heavy Metal
post Jul 13 2019, 15:23:54
Post #1

South Of Heaven /адепт ВУДУ
**************
Group: Металариец
Posts: 13,658
Releases: 9
On Forums: 9 years 3 months
Thanks: 5071 time(s)
Unknown


(IMG:http://metalarea.org/images/audiocovers/2019_Jul/acov_tid324380_thumb.jpg)

*Artist: Benedict Crow
*Album: Benedict Crow
*Year: 2019
*Genre: Hard Rock/Heavy Metal
*Country: Spain (IMG:http://metalarea.org/forum/style_images/flags/Spain.png)
*Format: mp3@CBR320kbps
*Size: 100MB

Tracklist:
1.Benedict Crow 06:27
2.Dementia Jaws 04:00
3.Time to Kill 03:32
4.Soul Stealer 04:52
5.Facing The Abyss 07:16
6.What Have We Done? 06:02
7.Huggin & Munnin 05:03
8.Lemniscate 08:18
******************************
Total playing time: 45:30

(IMG:http://metalarea.org/images/youtube.png)

Technical info
(IMG:http://metalarea.org/images/spectrogram/2019_Jul/c6af0e1fbb9022c149ee6a03f12ee834.png)
Input File: 04. Soul Stealer.mp3
Channels : 2
Sample Rate : 44100
Precision : 16-bit
Duration : 00:04:52.33 = 12891709 samples = 21924.7 CDDA sectors
File Size : 11.8M
Bit Rate : 323k
Sample Encoding: MPEG audio (layer I, II or III)
Comments :
Title=Soul Stealer
Artist=Benedict Crow
Album=Benedict Crow
Tracknumber=4/8
Year=2019
Genre=17
Discnumber=1/1



Register


Thanks:
Go to the top of the page
  Insert nick Quick quote
+Quote Post
 
Start new topic
Replies (1 - 5)
post Jul 14 2019, 02:15:50
Post #2

South Of Heaven /адепт ВУДУ
**************
Group: Металариец
Posts: 13,658
Releases: 9
On Forums: 9 years 3 months
Thanks: 5071 time(s)
Unknown


Дебютник.

Мне эти гишпанцы попались совершенно случайно, послушал и понравились, чего и вам желаю.

Харды значительно больше, нежели хэви, можно даже сказать, что это хард с элементами/вкраплениями хэви.
Go to the top of the page
  Insert nick Quick quote
+Quote Post
post Jul 14 2019, 20:30:07
Post #3

MDM-Thrash Metal
**************
Group: Металариец
Posts: 8,332
Releases: 494
From: Одесса
On Forums: 11 years 11 months
Thanks: 15769 time(s)
Ukraine




ЦИТАТА(avkruchinin @ Jul 14 2019, 04:15:50) *
с элементами/вкраплениями хэви.

(IMG:style_emoticons/default/hmm.gif)
Олд скул. Причем, как по мне, так ближе к 70ым Art/Progressive


Thanks:
(1) AHBAnep,
Go to the top of the page
  Insert nick Quick quote
+Quote Post
post Jul 14 2019, 22:45:38
Post #4

hearer & reader
**************
Group: Металариец
Posts: 7,897
Releases: 103
From: Moscow
On Forums: 11 years 10 months
Thanks: 7405 time(s)
Russian Federation


Да нет, больше по Stoner Rock, артами, прогами, хардой и не пахнет.
Чисто неформат.
Go to the top of the page
  Insert nick Quick quote
+Quote Post
post Jul 15 2019, 07:09:42
Post #5

South Of Heaven /адепт ВУДУ
**************
Group: Металариец
Posts: 13,658
Releases: 9
On Forums: 9 years 3 months
Thanks: 5071 time(s)
Unknown


ЦИТАТА(Andrew @ Jul 14 2019, 22:30:07) *
(IMG:style_emoticons/default/hmm.gif)
Олд скул. Причем, как по мне, так ближе к 70ым Art/Progressive

Ух ты, как Pink Floyd почти (IMG:style_emoticons/default/fear.gif)

Я как бы не парился, списал с инета стиль (IMG:style_emoticons/default/1488.gif)

Как по мне лишь бы нравилось.

А так не вопрос, придём к единому мнению, поменяю в шапке.

Моя версия (по мотивам аэстетика): Occult Stoner Rock/Hard Rock c инфлюациями HMR, кто больше? (IMG:style_emoticons/default/crazy.gif)
Go to the top of the page
  Insert nick Quick quote
+Quote Post
post Jul 15 2019, 13:39:08
Post #6

MDM-Thrash Metal
**************
Group: Металариец
Posts: 8,332
Releases: 494
From: Одесса
On Forums: 11 years 11 months
Thanks: 15769 time(s)
Ukraine


ЦИТАТА(avkruchinin @ Jul 15 2019, 09:09:42) *
Как по мне лишь бы нравилось.

(IMG:style_emoticons/default/m0114.gif)
Go to the top of the page
  Insert nick Quick quote
+Quote Post

Reply to this topicStart new topic
1 User(s) are reading this topic (1 Guests and 0 Anonymous Users)
0 Members:

 



- Lo-Fi Version Support form
Copyrights and abuse reports form
Time is now: 18th July 2019 - 01:24:58