Welcome Guest ( Log In | Register )

> Törzburg - Dracula's Castle [demo] (2019), Black Metal
post Jul 13 2019, 16:20:46
Post #1

Четыре Литра
****
Group: Металариец
Posts: 322
Releases: 181
On Forums: 7 years 2 months
Thanks: 4418 time(s)
Unknown


(IMG:http://metalarea.org/images/audiocovers/2019_Jul/acov_tid324382_thumb.jpg)

*Artist: Törzburg
*Album: Dracula's Castle [demo]
*Year: 2019
*Genre: Black Metal
*Country: Finland (IMG:http://metalarea.org/forum/style_images/flags/Finland.png)
*Format: mp3@CBR320kbps
*Size: 39MB

Tracklist:
1. Dracula's Castle 04:05
2. Triumph of Blood 04:16
3. Evil Countess 04:01
4. Winter Melancholy 04:06
******************************
Total playing time: 16:28



Extended info
Iron Bonehead Productions

Personal purchase.


Technical info
(IMG:http://metalarea.org/images/spectrogram/2019_Jul/931fc29927ad3bc59a9be53cf60cabef.png)
Input File: Iron Bonehead Productions - Törzburg - Dracula\'s Castle - 01 Dracula\'s Castle.mp3
Channels : 2
Sample Rate : 44100
Precision : 16-bit
Duration : 00:04:05.72 = 10836428 samples = 18429.3 CDDA sectors
File Size : 9.97M
Bit Rate : 325k
Sample Encoding: MPEG audio (layer I, II or III)
Comments :
Title=Dracula's Castle
Artist=Törzburg
Album=Törzburg - Dracula's Castle
Tracknumber=1
Year=2019



Register


Go to the top of the page
  Insert nick Quick quote
+Quote Post
 
Start new topic
Replies (1 - 1)
post Aug 29 2019, 15:13:08
Post #2

Все люди - черви.
**********
Group: Металариец
Posts: 1,072
Releases: 123
From: Пхёнъян, Северная Корея
On Forums: 6 years 10 months
Thanks: 3890 time(s)
North Korea


Нормас сырь
Go to the top of the page
  Insert nick Quick quote
+Quote Post

Reply to this topicStart new topic
1 User(s) are reading this topic (1 Guests and 0 Anonymous Users)
0 Members:

 



- Lo-Fi Version Support form
Copyrights and abuse reports form
Time is now: 21st November 2019 - 22:01:46