Welcome Guest ( Log In | Register )

> Pitchblack - All Black (2019), Melodic Death Metal/Metalcore
post Jul 13 2019, 16:25:21
Post #1

Каждое ваше "Спасибо" помогает мне понять, что я делаю новости не напрасно.
**************
Group: Металариец
Posts: 2,063
Releases: 1811
From: Одесса
On Forums: 11 years 5 months
Thanks: 15679 time(s)
Ukraine


(IMG:http://metalarea.org/images/audiocovers/2019_Jul/acov_tid324383_thumb.jpg)

*Artist: Pitchblack
*Album: All Black
*Year: 2019
*Genre: Melodic Death Metal/Metalcore
*Country: Russian Federation (IMG:http://metalarea.org/forum/style_images/flags/Russian%20Federation.png)
*Format: mp3@CBR320kbps
*Size: 165MB

Tracklist:
1. Broken Oath (My Eagle Flying High) 02:48
2. I Spit Blood 05:41
3. Sorry, Little Bitch! 08:17
4. OK, Go Away! 03:33
5. Bloodred Venom Cut the Skies 04:44
6. Let's Ask the Knife? 04:41
7. This World Is Mine 05:25
8. Лучше одному, чем с долбоёбами 03:59
9. Welcome to My Graveyard! 04:47
10. Suffer! 03:22
11. Цвет настроения синий 04:46
12. Ihateu 07:54
13. The Last Cigarette 08:58
******************************
Total playing time: 1:08:55



Extended info
В ЛОУ

Line - up:

MyVenom - Drums, Vocals (additional) (track 9), Vocals (clean) (track 10) (ex-Pokerface)
Katrin Child - Guitars, Vocals (Atonismen, ex-The Rinn)
Mechanix - Bass (Дивул, Химера)

(IMG:https://www.metal-archives.com/images/3/5/4/0/3540428721_photo.jpg?2351)


Technical info
(IMG:http://metalarea.org/images/spectrogram/2019_Jul/587b381b76cc483faf505454998eb68f.png)
Input File: 13. The Last Cigarette.mp3
Channels : 2
Sample Rate : 44100
Precision : 16-bit
Duration : 00:08:58.78 = 23760286 samples = 40408.6 CDDA sectors
File Size : 21.6M
Bit Rate : 320k
Sample Encoding: MPEG audio (layer I, II or III)
Comments :
Title=The Last Cigarette
Artist=PitchBlack
Album=All Black
Tracknumber=13/13
Year=2019
Genre=Melodic Death Metal / Metalcore



Register


Go to the top of the page
  Insert nick Quick quote
+Quote Post
 
Start new topic
Replies (1 - 5)
post Jul 14 2019, 02:26:30
Post #2

South Of Heaven /адепт ВУДУ
**************
Group: Металариец
Posts: 13,863
Releases: 9
On Forums: 9 years 7 months
Thanks: 5251 time(s)
Unknown


Далеко неоднозначно всё, но тётка вокалит зачётно.

Парень на фотке справа точно аннунак (IMG:style_emoticons/default/fear.gif)
Go to the top of the page
  Insert nick Quick quote
+Quote Post
post Jul 16 2019, 21:06:39
Post #3

MDM-Thrash Metal
**************
Group: Металариец
Posts: 9,080
Releases: 743
From: Одесса
On Forums: 12 years 3 months
Thanks: 19844 time(s)
Ukraine


ЦИТАТА(avkruchinin @ Jul 14 2019, 04:26:30) *
Далеко неоднозначно всё

(IMG:style_emoticons/default/dooo.gif)
Начать хотя бы с того, что не молодез ни разу!!!
Go to the top of the page
  Insert nick Quick quote
+Quote Post
post Jul 16 2019, 23:05:50
Post #4

Два Литра
**
Group: Завсегдатай
Posts: 194
Releases: 1
On Forums: 1 year 6 months
Thanks: 128 time(s)
Russian Federation


Феминизм-метал (IMG:style_emoticons/default/25.gif)
Go to the top of the page
  Insert nick Quick quote
+Quote Post
post Jul 21 2019, 11:09:12
Post #5

Ъ
**************
Group: Металариец
Posts: 9,764
Releases: 9
On Forums: 10 years 10 months
Thanks: 1916 time(s)
Sweden


2019? Больше похоже на колхозную говнодемку из 90х.
Go to the top of the page
  Insert nick Quick quote
+Quote Post
post Jul 21 2019, 11:26:50
Post #6

Два Литра
**
Group: Завсегдатай
Posts: 194
Releases: 1
On Forums: 1 year 6 months
Thanks: 128 time(s)
Russian Federation


Гитарный баттл с участием лидера группы Pitchblack - Катрин Чайлд:
Go to the top of the page
  Insert nick Quick quote
+Quote Post

Reply to this topicStart new topic
1 User(s) are reading this topic (1 Guests and 0 Anonymous Users)
0 Members:

 



- Lo-Fi Version Support form
Copyrights and abuse reports form
Time is now: 21st November 2019 - 22:13:49