Welcome Guest ( Log In | Register )

> Releases Upload / Добавление релизов

Добавить релиз тут / Click here to add release
Рекомендованные обменники / Recommended file shares

> Demon Goat - Scathe (2019), Black/Doom Metal
post Jul 13 2019, 16:47:26
Post #1

Каждое ваше "Спасибо" помогает мне понять, что я делаю новости не напрасно.
***********
Group: Металариец
Posts: 1,894
Releases: 1656
From: Одесса
On Forums: 11 years 2 months
Thanks: 14003 time(s)
Ukraine


(IMG:http://metalarea.org/images/audiocovers/2019_Jul/acov_tid324384_thumb.jpg)

*Artist: Demon Goat
*Album: Scathe
*Year: 2019
*Genre: Black/Doom Metal
*Country: United States (IMG:http://metalarea.org/forum/style_images/flags/United%20States.png)
*Format: mp3@CBR320kbps
*Size: 113MB

Tracklist:
1. Circadian Decay 07:16
2. Lucifer's Den 08:11
3. Shapeless Entities 08:07
4. Vacant 06:14
5. Lord of Slog 10:03
6. Pointless Ritual, Worthless Soul 07:12
******************************
Total playing time: 47:03



Technical info
(IMG:http://metalarea.org/images/spectrogram/2019_Jul/d75d64e4c8af02b753d886d652e62be5.png)
Input File: 01. Circadian Decay.mp3
Channels : 2
Sample Rate : 44100
Precision : 16-bit
Duration : 00:07:17.00 = 19271832 samples = 32775.2 CDDA sectors
File Size : 17.5M
Bit Rate : 320k
Sample Encoding: MPEG audio (layer I, II or III)
Comments :
Title=Circadian Decay
Artist=Demon Goat
Album=Scathe
Tracknumber=1
Year=2019
Genre=Black/Doom Metal



Register


Go to the top of the page
  Insert nick Quick quote
+Quote Post
 
Start new topic
Replies (1 - 2)
post Jul 14 2019, 11:46:17
Post #2

Правь статус, ####!111
**************
Group: Металариец
Posts: 2,558
Releases: 7
From: Dnipro
On Forums: 11 years 1 month
Thanks: 750 time(s)
Ukraine


В стиль еще и сладж ой как просится. (IMG:style_emoticons/default/dooo.gif)
Go to the top of the page
  Insert nick Quick quote
+Quote Post
post Jul 18 2019, 04:12:21
Post #3

кручу наждак
**************
Group: Металариец
Posts: 4,009
Releases: 97
From: Самара
On Forums: 9 years 3 months
Thanks: 2995 time(s)
Russian Federation


Великолепно. Второй полноформат за год и опять без потери качества.
Go to the top of the page
  Insert nick Quick quote
+Quote Post

Reply to this topicStart new topic
1 User(s) are reading this topic (1 Guests and 0 Anonymous Users)
0 Members:

 



- Lo-Fi Version Support form
Copyrights and abuse reports form
Time is now: 22nd August 2019 - 15:49:54