Welcome Guest ( Log In | Register )

> Releases Upload / Добавление релизов

Добавить релиз тут / Click here to add release
Рекомендованные обменники / Recommended file shares

> Carnal Garden - Where They Are Silent (2017), Old School Death Metal
post Jul 13 2019, 17:00:12
Post #1

Правь статус, ####!111
**************
Group: Металариец
Posts: 17,759
Releases: 12042
From: Г.Харьков
On Forums: 7 years 2 months
Thanks: 202150 time(s)
Unknown


(IMG:https://metalarea.org/images/audiocovers/2019_Jul/acov_tid324385_thumb.jpg)

*Artist: Carnal Garden
*Album: Where They Are Silent
*Year: 2017
*Genre: Old School Death Metal
*Country: Greece (IMG:https://metalarea.org/forum/style_images/flags/Greece.png)
*Format: mp3@CBR320kbps
*Size: 87MB

Tracklist:
1. Where They Are Silent 03:36
2. Crushing Skulls 03:09
3. Gasping for Last Breath 03:04
4. At the Forefront 03:20
5. Morbid Dreams 03:24
6. Violence Unleashed 02:45
7. Blood on the Walls 03:34
8. In the Garden of Death 03:13
9. World Infected 03:44
10. From the Catacombs 04:33
******************************
Total playing time: 34:22




Extended info
John "Weedow" Dafopoulos Guitars, Bass (2012-present)
See also: Gospel of Grief, Puter Deus, Pigskinner, ex-Overcast (live), ex-Immortally Insane
Kostas Analytis Vocals (2015-present)
See also: Abyssus, Soulskinner, ex-Cryptic Realms, ex-Necrosis
Dimitris Miglis Drums (2016-present)
See also: Order of the Ebon Hand, ex-Acheron's Chaos, ex-Blessed by Perversion, ex-Decomposed Existence


Technical info
(IMG:https://metalarea.org/images/spectrogram/2019_Jul/e8c1f094cd45a4d88ca93cbd464352d7.png)
Input File: 05. Morbid Dreams.mp3
Channels : 2
Sample Rate : 44100
Precision : 16-bit
Duration : 00:03:24.08 = 9000060 samples = 15306.2 CDDA sectors
File Size : 8.71M
Bit Rate : 342k
Sample Encoding: MPEG audio (layer I, II or III)
Comments :
Title=Morbid Dreams
Artist=Carnal Garden
Album=Where They Are Silent
Tracknumber=05
Year=2017
Genre=Metal



Register


Go to the top of the page
  Insert nick Quick quote
+Quote Post
 
Start new topic
Replies (1 - 1)
post Jul 14 2019, 21:39:09
Post #2

Crush The Enemies
**************
Group: Металариец
Posts: 4,207
Releases: 0
From: Moscow
On Forums: 9 years 10 months
Thanks: 2353 time(s)
Russian Federation



Просто и незатейливо - но с каким сладким DISMEMBER-OBITUARY душком! (IMG:style_emoticons/default/metaler.gif) (IMG:style_emoticons/default/metaler.gif) (IMG:style_emoticons/default/metaler.gif)


Thanks:
Go to the top of the page
  Insert nick Quick quote
+Quote Post

Reply to this topicStart new topic
1 User(s) are reading this topic (1 Guests and 0 Anonymous Users)
0 Members:

 



- Lo-Fi Version Support form
Copyrights and abuse reports form
Time is now: 18th July 2019 - 01:55:38