Welcome Guest ( Log In | Register )

> Marid - ٧٧٧٧٧٧٧ [ep] (2018), Black Metal
post Jul 13 2019, 18:30:48
Post #1

Мегаманьяк
***********
Group: Металариец
Posts: 1,819
Releases: 1437
From: Prešov
On Forums: 5 years 7 months
Thanks: 35061 time(s)
Slovakia


(IMG:http://metalarea.org/images/audiocovers/2019_Jul/acov_tid324387_thumb.jpg)

*Artist: Marid
*Album: ٧٧٧٧٧٧٧ [ep]
*Year: 2018
*Genre: Black Metal
*Country: Unknown (IMG:http://metalarea.org/forum/style_images/flags/Unknown.png)
*Format: mp3@CBR320kbps
*Size: 63MB

Tracklist:
1. Babalon 10:31
2. Al Hayah Al Abadeyya 05:48
3. Al Loha Lo Zomorrodeyya 10:33
******************************
Total playing time: 26:52



Technical info
(IMG:http://metalarea.org/images/spectrogram/2019_Jul/79b0817dd8a1043d7dcb2fae607c4dab.png)
Input File: 02. Al Hayat Al Abadeyyah.mp3
Channels : 2
Sample Rate : 44100
Precision : 16-bit
Duration : 00:05:48.81 = 15382345 samples = 26160.5 CDDA sectors
File Size : 14.2M
Bit Rate : 325k
Sample Encoding: MPEG audio (layer I, II or III)
Comments :
Title=Al Hayat Al Abadeyyah
Artist=Marid
Album=vvvvvvv
Tracknumber=02/03
Year=2018
Genre=Black Metal



Register


Go to the top of the page
  Insert nick Quick quote
+Quote Post
 
Start new topic
Replies (1 - 1)
post Jul 16 2019, 21:30:01
Post #2

Два Литра
**
Group: Завсегдатай
Posts: 190
Releases: 5
On Forums: 7 years 8 months
Thanks: 265 time(s)
Ukraine


Interesting! The album title and lyrics are in Arabic.
Go to the top of the page
  Insert nick Quick quote
+Quote Post

Reply to this topicStart new topic
1 User(s) are reading this topic (1 Guests and 0 Anonymous Users)
0 Members:

 



- Lo-Fi Version Support form
Copyrights and abuse reports form
Time is now: 12th November 2019 - 20:14:16