Welcome Guest ( Log In | Register )

> Releases Upload / Добавление релизов

Добавить релиз тут / Click here to add release
Рекомендованные обменники / Recommended file shares

> Omen - Halálfogytiglan (2019), Power/Thrash/Speed Metal
post Jul 13 2019, 19:51:46
Post #1

Правь статус, ####!111
**************
Group: Металариец
Posts: 17,759
Releases: 12042
From: Г.Харьков
On Forums: 7 years 2 months
Thanks: 202149 time(s)
Unknown


(IMG:https://metalarea.org/images/audiocovers/2019_Jul/acov_tid324389_thumb.jpg)

*Artist: Omen
*Album: Halálfogytiglan
*Year: 2019
*Genre: Power/Thrash/Speed Metal
*Country: Hungary (IMG:https://metalarea.org/forum/style_images/flags/Hungary.png)
*Format: mp3@CBR320kbps
*Size: 84MB

Tracklist:
1. Most kezdődik
2. Szellempont
3. Jelmezbálban meztelen
4. Knock & Roll / Lehunyt szemmel
5. Egy jobb pokol
6. Senki lenni
7. Amikor még szerelmes voltam
8. Az lesz ami volt
9. Élni a jó
10. Halálfogytiglan
******************************
Total playing time: 38:03



Extended info
Péter Molnár "Stula" Vocals
László Nagyfi Guitars
Matt Nagy Guitars
József Mezőfi Bass
Zoltán Nagyfi Drums


Technical info
(IMG:https://metalarea.org/images/spectrogram/2019_Jul/cddf89f6a3c60972ac0f8ac882f19aa6.png)
Input File: 05. Egy jobb pokol.mp3
Channels : 2
Sample Rate : 44100
Precision : 16-bit
Duration : 00:03:56.74 = 10440102 samples = 17755.3 CDDA sectors
File Size : 9.47M
Bit Rate : 320k
Sample Encoding: MPEG audio (layer I, II or III)
Comments :
Title=Egy jobb pokol
Artist=Omen
Album=Halalfogytiglan
Tracknumber=05
Year=2019
Genre=Metal



Register


Go to the top of the page
  Insert nick Quick quote
+Quote Post
 
Start new topic
Replies (1 - 1)
post Jul 15 2019, 06:48:47
Post #2

Три Литра
***
Group: Завсегдатай
Posts: 214
Releases: 0
From: Ташкент
On Forums: 11 years 5 months
Thanks: 53 time(s)
Uzbekistan


Очень уважаемая в Венгрии банда. Да и мной тоже )))
Go to the top of the page
  Insert nick Quick quote
+Quote Post

Reply to this topicStart new topic
1 User(s) are reading this topic (1 Guests and 0 Anonymous Users)
0 Members:

 



- Lo-Fi Version Support form
Copyrights and abuse reports form
Time is now: 18th July 2019 - 01:24:22