Welcome Guest ( Log In | Register )

> Fields Of Elysium - In Ancient Contemplation (2019), Progressive Death Metal
post Jul 13 2019, 23:11:40
Post #1

Правь статус, ####!111
**************
Group: Металариец
Posts: 19,571
Releases: 13248
From: Г.Харьков
On Forums: 7 years 6 months
Thanks: 228487 time(s)
Unknown


(IMG:https://metalarea.org/images/audiocovers/2019_Jul/acov_tid324395_thumb.jpg)

*Artist: Fields Of Elysium
*Album: In Ancient Contemplation
*Year: 2019
*Genre: Progressive Death Metal
*Country: United States (IMG:https://metalarea.org/forum/style_images/flags/United%20States.png)
*Format: mp3@CBR320kbps
*Size: 101MB

Tracklist:
1. Papas Perfectas 06:07
2. From the Shoulders of Giants 03:19
3. The Whip or the Carrot 06:23
4. Bedside Dragon 01:44
5. Alligator Mountain 07:42
6. On the Meeting of Two Eternities 02:33
7. Frogs in the Distance After the Rain 05:48
8. Asterisk 01:58
9. Abstaining the Hive Mind 07:55
******************************
Total playing time: 43:29




Extended info
Andre Lamoureux Bass, Vocals
See also: ex-Vale of Miscreation (live)
Omar Serrano-Perez Guitars
Quanah Lee Guitars, Vocals
Michael Petry Drums (2012-present)


Technical info
(IMG:https://metalarea.org/images/spectrogram/2019_Jul/fcd9c4a37dac0d8e0f4c48df81204fc8.png)
Input File: 03 - The Whip or the Carrot.mp3
Channels : 2
Sample Rate : 44100
Precision : 16-bit
Duration : 00:06:22.51 = 16868647 samples = 28688.2 CDDA sectors
File Size : 15.5M
Bit Rate : 323k
Sample Encoding: MPEG audio (layer I, II or III)
Comments :
Title=The Whip or the Carrot
Artist=Fields Of Elysium
Album=In Ancient Contemplation
Tracknumber=3
Year=2019
Genre=Technical Death Metal



Register


Go to the top of the page
  Insert nick Quick quote
+Quote Post
 
Start new topic
Replies (1 - 7)
post Jul 14 2019, 09:49:38
Post #2

бутылка кефира полбатона
**********
Group: Металариец
Posts: 1,078
Releases: 0
From: Курганская обл., Шадринск
On Forums: 10 years 8 months
Thanks: 331 time(s)
Russian Federation


бюджет облоги - 67 центов
лучше б уж просто на белом фоне черными буквами написали
Go to the top of the page
  Insert nick Quick quote
+Quote Post
post Jul 14 2019, 11:11:11    Сейчас играет: Dead Thrall - Goreborg (2019)
Post #3

Group: Подсевший
Posts: 38
Releases: 0
From: Belarus
On Forums: 9 years 4 months
Thanks: 13 time(s)
Belarus


Скорее Tech MeloDeath
Go to the top of the page
  Insert nick Quick quote
+Quote Post
post Jul 14 2019, 11:23:01
Post #4

Два Литра
**
Group: Завсегдатай
Posts: 112
Releases: 0
From: Житомир
On Forums: 10 years 5 months
Thanks: 81 time(s)
Ukraine


Очень интересная работа.
Go to the top of the page
  Insert nick Quick quote
+Quote Post
post Jul 14 2019, 12:58:27
Post #5

Правь статус, ####!111
**************
Group: Металариец
Posts: 4,246
Releases: 0
From: Одесса
On Forums: 11 years 8 months
Thanks: 2518 time(s)
Unknown


melogeek pseudo death metal
Go to the top of the page
  Insert nick Quick quote
+Quote Post
post Jul 14 2019, 15:02:22
Post #6

Три Литра
***
Group: Завсегдатай
Posts: 286
Releases: 0
On Forums: 9 years 2 months
Thanks: 56 time(s)
Russian Federation


какой то obituarycelticfrost со шведодэтовским звуком...но забавно
Go to the top of the page
  Insert nick Quick quote
+Quote Post
post Jul 14 2019, 17:39:49
Post #7

Сектант технодро4чер
**************
Group: Металариец
Posts: 5,495
Releases: 143
From: Тимчасово окупована територія
On Forums: 11 years 3 months
Thanks: 5733 time(s)
Ukraine


Отличный прог, например.
Go to the top of the page
  Insert nick Quick quote
+Quote Post
post Jul 26 2019, 15:20:47
Post #8

Schuldinerist
**************
Group: Металариец
Posts: 10,395
Releases: 33
From:
On Forums: 12 years 7 months
Thanks: 6553 time(s)
Russian Federation


Очень не плохо, но выше головы не прыгнули. Изюма не хватает.
8/10
Go to the top of the page
  Insert nick Quick quote
+Quote Post

Reply to this topicStart new topic
1 User(s) are reading this topic (1 Guests and 0 Anonymous Users)
0 Members:

 



- Lo-Fi Version Support form
Copyrights and abuse reports form
Time is now: 21st November 2019 - 21:47:14