Welcome Guest ( Log In | Register )

> Releases Upload / Добавление релизов

Добавить релиз тут / Click here to add release
Рекомендованные обменники / Recommended file shares

> Fields Of Elysium - In Ancient Contemplation (2019), Progressive Death Metal
post Jul 13 2019, 23:11:40
Post #1

Правь статус, ####!111
**************
Group: Металариец
Posts: 17,759
Releases: 12042
From: Г.Харьков
On Forums: 7 years 2 months
Thanks: 202149 time(s)
Unknown


(IMG:https://metalarea.org/images/audiocovers/2019_Jul/acov_tid324395_thumb.jpg)

*Artist: Fields Of Elysium
*Album: In Ancient Contemplation
*Year: 2019
*Genre: Progressive Death Metal
*Country: United States (IMG:https://metalarea.org/forum/style_images/flags/United%20States.png)
*Format: mp3@CBR320kbps
*Size: 101MB

Tracklist:
1. Papas Perfectas 06:07
2. From the Shoulders of Giants 03:19
3. The Whip or the Carrot 06:23
4. Bedside Dragon 01:44
5. Alligator Mountain 07:42
6. On the Meeting of Two Eternities 02:33
7. Frogs in the Distance After the Rain 05:48
8. Asterisk 01:58
9. Abstaining the Hive Mind 07:55
******************************
Total playing time: 43:29




Extended info
Andre Lamoureux Bass, Vocals
See also: ex-Vale of Miscreation (live)
Omar Serrano-Perez Guitars
Quanah Lee Guitars, Vocals
Michael Petry Drums (2012-present)


Technical info
(IMG:https://metalarea.org/images/spectrogram/2019_Jul/fcd9c4a37dac0d8e0f4c48df81204fc8.png)
Input File: 03 - The Whip or the Carrot.mp3
Channels : 2
Sample Rate : 44100
Precision : 16-bit
Duration : 00:06:22.51 = 16868647 samples = 28688.2 CDDA sectors
File Size : 15.5M
Bit Rate : 323k
Sample Encoding: MPEG audio (layer I, II or III)
Comments :
Title=The Whip or the Carrot
Artist=Fields Of Elysium
Album=In Ancient Contemplation
Tracknumber=3
Year=2019
Genre=Technical Death Metal



Register


Go to the top of the page
  Insert nick Quick quote
+Quote Post
 
Start new topic
Replies (1 - 6)
post Jul 14 2019, 09:49:38
Post #2

бутылка кефира полбатона
**********
Group: Металариец
Posts: 1,065
Releases: 0
From: Курганская обл., Шадринск
On Forums: 10 years 4 months
Thanks: 324 time(s)
Russian Federation


бюджет облоги - 67 центов
лучше б уж просто на белом фоне черными буквами написали
Go to the top of the page
  Insert nick Quick quote
+Quote Post
post Jul 14 2019, 11:11:11    Сейчас играет: Dead Thrall - Goreborg (2019)
Post #3

Group: Подсевший
Posts: 35
Releases: 0
From: Belarus
On Forums: 9 years 1 week
Thanks: 8 time(s)
Belarus


Скорее Tech MeloDeath
Go to the top of the page
  Insert nick Quick quote
+Quote Post
post Jul 14 2019, 11:23:01
Post #4

Два Литра
**
Group: Завсегдатай
Posts: 110
Releases: 0
From: Житомир
On Forums: 10 years 1 month
Thanks: 78 time(s)
Ukraine


Очень интересная работа.
Go to the top of the page
  Insert nick Quick quote
+Quote Post
post Jul 14 2019, 12:58:27
Post #5

Правь статус, ####!111
**************
Group: Металариец
Posts: 3,771
Releases: 0
From: Одесса
On Forums: 11 years 4 months
Thanks: 1848 time(s)
Unknown


melogeek pseudo death metal
Go to the top of the page
  Insert nick Quick quote
+Quote Post
post Jul 14 2019, 15:02:22
Post #6

Три Литра
***
Group: Завсегдатай
Posts: 279
Releases: 0
On Forums: 8 years 10 months
Thanks: 48 time(s)
Russian Federation


какой то obituarycelticfrost со шведодэтовским звуком...но забавно
Go to the top of the page
  Insert nick Quick quote
+Quote Post
post Jul 14 2019, 17:39:49
Post #7

Сектант технодро4чер
**************
Group: Металариец
Posts: 5,442
Releases: 143
From: Тимчасово окупована територія
On Forums: 10 years 10 months
Thanks: 5642 time(s)
Ukraine


Отличный прог, например.
Go to the top of the page
  Insert nick Quick quote
+Quote Post

Reply to this topicStart new topic
1 User(s) are reading this topic (1 Guests and 0 Anonymous Users)
0 Members:

 



- Lo-Fi Version Support form
Copyrights and abuse reports form
Time is now: 18th July 2019 - 01:25:15