Welcome Guest ( Log In | Register )

> Releases Upload / Добавление релизов

Добавить релиз тут / Click here to add release
Рекомендованные обменники / Recommended file shares

> Kapala - Termination Apex [ep] (2019), Death/Black Metal
post Jul 14 2019, 01:10:11
Post #1

Три Литра
***
Group: Завсегдатай
Posts: 219
Releases: 116
On Forums: 6 years 10 months
Thanks: 2546 time(s)
Unknown


(IMG:http://metalarea.org/images/audiocovers/2019_Jul/acov_tid324396_thumb.jpg)

*Artist: Kapala
*Album: Termination Apex [ep]
*Year: 2019
*Genre: Death/Black Metal
*Country: India (IMG:http://metalarea.org/forum/style_images/flags/India.png)
*Format: mp3@CBR320kbps
*Size: 55MB

Tracklist:
1. The Beating Heart Of War (Intro) 02:39
2. Martial Dominance 04:32
3. Moral Attrition 04:45
4. Paths Of Ash 05:29
5. Vomit The Phosphorus 05:26
6. Unto Ash (Outro) 02:10
******************************
Total playing time: 25:01



Extended info
DUNKELHEIT PRODUKTIONEN is proud to present the highly anticipated second EP from Indian warfare noise terrorists KAPALA, Termination Apex, on CD, 12" vinyl, and cassette tape formats.

Formed in the depths of Kolkata, KAPALA have had one - and only one - objective since its formation: to play the most intense and bestial musick and annihilate the cesspool. Inspired by such legends such as Goatpenis, Revenge, Black Witchery, Blasphemy, Conqueror, and many other violent entities, KAPALA seek to wage total sonic warfare with a strong obsession for the concept of "Survival of the Fittest." And indeed, they accomplished that in a swift 'n' decisive 20 minutes comprising their first public recording, Infest Cesspool, which was released in 2017 by DUNKELHEIT to worldwide shock & awe.

Now, with the aptly titled Termination Apex, KAPALA eclipse that feat with an even-more-savage and challenging onslaught that spans a densely uncompromising 26 minutes. Like its equally swift predecessor, Termination Apex displays the power-trio of KAPALA more as a three-man war machine: indeed, their aim is to crush, kill, and destroy all in their path with overwhelming violence and totally OTT intensity. Their arsenal of shredded decibels is even more bountiful here, as each riff and drum hit becomes its own weapon, stockpiled with nuclear power before unleashing wave after wave after unmitigatedly annihilating wave.

If anything, the most striking difference between Infest Cesspool and Termination Apex is that KAPALA here take a decisive detour from their influences and blast deeply into (and below) the most fetid depths of old-school grindcore, noisecore, and even gabber-leaning goregrind. Each instrument is seemingly mangled beyond recognition, stripped of humanity and anything resembling "normality" - stripped so far beyond the barest essentials, rawness pushed well past the red - that a perversely avant-garde element arises. However, linger under no assumption that such is softening KAPALA's characteristically savage identity: this is still its own blown-out, charred-beyond-redemption landscape, unforgiving and unrelenting and unforgettably so, arguably more than ever.

If KAPALA left nothing but scorched earth and eviscerated eardrums after the Infest Cesspool was wiped clean, then surely their Termination Apex scatters the ashes across the anticosmos - and far beyond!


Technical info
(IMG:http://metalarea.org/images/spectrogram/2019_Jul/d7128a7d9b4f130f100890cad7565dc3.png)
Input File: 01 - kapala - the beating heart of war (intro).mp3
Channels : 2
Sample Rate : 44100
Precision : 16-bit
Duration : 00:02:39.23 = 7021955 samples = 11942.1 CDDA sectors
File Size : 6.53M
Bit Rate : 328k
Sample Encoding: MPEG audio (layer I, II or III)
Comments :
Title=The Beating Heart of War (Intro)
Artist=Kapala
Album=Termination Apex
Tracknumber=01
Year=2019
Genre=Black Metal



Register


Go to the top of the page
  Insert nick Quick quote
+Quote Post
 
Start new topic
Replies (1 - 1)
post Jul 14 2019, 22:42:00
Post #2

hearer & reader
**************
Group: Металариец
Posts: 7,897
Releases: 103
From: Moscow
On Forums: 11 years 10 months
Thanks: 7405 time(s)
Russian Federation


Шумим, братец, шумим!
Go to the top of the page
  Insert nick Quick quote
+Quote Post

Reply to this topicStart new topic
1 User(s) are reading this topic (1 Guests and 0 Anonymous Users)
0 Members:

 



- Lo-Fi Version Support form
Copyrights and abuse reports form
Time is now: 18th July 2019 - 01:30:39