Welcome Guest ( Log In | Register )

 
Reply to this topicStart new topic
> Grave Dust - The Pale Hand [ep] (2018), Old School Death Metal
post Jul 14 2019, 04:39:20
Post #1

Правь статус, ####!616
**************
Group: Металариец
Posts: 4,705
Releases: 3282
From: 55°35’N 38°08’E
On Forums: 11 years 4 months
Thanks: 62034 time(s)
Unknown


(IMG:http://metalarea.org/images/audiocovers/2019_Jul/acov_tid324397_thumb.jpg)

*Artist: Grave Dust
*Album: The Pale Hand [ep]
*Year: 2018
*Genre: Old School Death Metal
*Country: United States (IMG:http://metalarea.org/forum/style_images/flags/United%20States.png)
*Format: mp3@CBR320kbps
*Size: 44MB

Tracklist:
1.Intro 00:55
2.The Chase 02:51
3.Ritual Glow 03:33
4.Pale Hand 03:32
5.Rotting With Evil 03:14
6.Purgatory Alone 03:59
******************************
Total playing time: 18:04




Technical info
(IMG:http://metalarea.org/images/spectrogram/2019_Jul/60906414f3a2e2f4884a8a497981ff74.png)
Input File: 02 The Chase.mp3
Channels : 2
Sample Rate : 44100
Precision : 16-bit
Duration : 00:02:51.38 = 7557638 samples = 12853.1 CDDA sectors
File Size : 7.08M
Bit Rate : 330k
Sample Encoding: MPEG audio (layer I, II or III)
Comments :
Title=The Chase
Artist=Grave Dust
Album=The Pale Hand
Tracknumber=2
Year=2018
Genre=Death Metal



Register


Go to the top of the page
  Insert nick Quick quote
+Quote Post

Reply to this topicStart new topic
1 User(s) are reading this topic (1 Guests and 0 Anonymous Users)
0 Members:

 



- Lo-Fi Version Support form
Copyrights and abuse reports form
Time is now: 21st November 2019 - 22:08:59