Welcome Guest ( Log In | Register )

 
Reply to this topicStart new topic
> Internal Void - Basement Tapes [demo] (1988), Doom/Heavy Metal (D7)
post Jul 14 2019, 08:50:01
Post #1

Подвал
**************
Group: Металариец
Posts: 13,861
Releases: 7838
From: Far East (Khabarovsk)
On Forums: 10 years 9 months
Thanks: 76271 time(s)
Russian Federation


(IMG:http://metalarea.org/images/audiocovers/2019_Jul/acov_tid324401_thumb.jpg)

*Artist: Internal Void
*Album: Basement Tapes [demo]
*Year: 1988
*Genre: Doom/Heavy Metal
*Country: United States (IMG:http://metalarea.org/forum/style_images/flags/United%20States.png)
*Format: mp3@CBR160kbps (IMG:http://metalarea.org/images/bit_low.gif)
*Size: 50MB

Tracklist:
1. L.S.D. (Low Shudder Doom) 02:30
2. Political Religion 01:52
3. Unheard Voice 03:37
4. Political Religion 03:36
5. Utopia Of Daze (U.O.D.) 05:25
6. L.S.D. (Low Shudder Doom) 02:30
7. The Tomb (Planet Earth) 02:20
8. The Entrance 04:55
9. Political Religion 03:30
10. The Entrance 05:07
11. Exo-Skeleton 03:29
12. Born Free (Die A Prisoner) 06:03
******************************
Total playing time: 44:54



Extended info
Band from Frederick, Maryland.
Tracks 1-5 recorded in the studio.
Tracks 6-12 recorded in Eric Little's basement.


Technical info
(IMG:http://metalarea.org/images/spectrogram/2019_Jul/5140156abbd5374d035b1ec342f26f0f.png)
Input File: 01-L.S.D. (Low Shudder Doom).mp3
Channels : 2
Sample Rate : 44100
Precision : 16-bit
Duration : 00:02:30.16 = 6622056 samples = 11262 CDDA sectors
File Size : 3.01M
Bit Rate : 160k
Sample Encoding: MPEG audio (layer I, II or III)
Comments :
Title=L.s.d. (Low Shudder Doom)
Artist=Internal Void
Album=Basement Tapes
Tracknumber=01
Year=1988
Genre=Metal



Register


Go to the top of the page
  Insert nick Quick quote
+Quote Post

Reply to this topicStart new topic
1 User(s) are reading this topic (1 Guests and 0 Anonymous Users)
0 Members:

 



- Lo-Fi Version Support form
Copyrights and abuse reports form
Time is now: 21st November 2019 - 21:45:23