Welcome Guest ( Log In | Register )

 
Reply to this topicStart new topic
> Hammerhawk - Demo 1982 [demo] (1982), Heavy Metal
post Jul 14 2019, 09:05:04
Post #1

Подвал
**************
Group: Металариец
Posts: 13,861
Releases: 7838
From: Far East (Khabarovsk)
On Forums: 10 years 9 months
Thanks: 76271 time(s)
Russian Federation


(IMG:http://metalarea.org/images/audiocovers/2019_Jul/acov_tid324402_thumb.JPG)

*Artist: Hammerhawk
*Album: Demo 1982 [demo]
*Year: 1982
*Genre: Heavy Metal
*Country: Netherlands (IMG:http://metalarea.org/forum/style_images/flags/Netherlands.png)
*Format: mp3@CBR320kbps
*Size: 18MB

Tracklist:
1. Low Rider 03:51
2. White Hot Steel 04:52
******************************
Total playing time: 8:43



Extended info
Recorded in 1982 at Ocotopus Studios.


Technical info
(IMG:http://metalarea.org/images/spectrogram/2019_Jul/260231f4e7be56a690a2711f8c123306.png)
Input File: 01-Low Rider.mp3
Channels : 2
Sample Rate : 44100
Precision : 16-bit
Duration : 00:03:51.19 = 10195479 samples = 17339.2 CDDA sectors
File Size : 9.25M
Bit Rate : 320k
Sample Encoding: MPEG audio (layer I, II or III)
Comments :
Title=Low Rider
Artist=Hammerhawk
Album=Demo '82
Tracknumber=01
Year=1982
Genre=Heavy Metal



Register


Go to the top of the page
  Insert nick Quick quote
+Quote Post

Reply to this topicStart new topic
1 User(s) are reading this topic (1 Guests and 0 Anonymous Users)
0 Members:

 



- Lo-Fi Version Support form
Copyrights and abuse reports form
Time is now: 21st November 2019 - 21:45:47