Welcome Guest ( Log In | Register )

> И неформату есть предел.

Рэп/хип-хоп/шансон/поп удаляются. Для них есть свои порталы.

> Rick Wakeman - Journey To The Center Of The Earth [live] (1974), Progressive Rock
post Jul 14 2019, 21:25:24
Post #1

Правь статус, ####!111
**************
Group: Металариец
Posts: 42,304
Releases: 638
On Forums: 10 years 2 months
Thanks: 33156 time(s)
Russian Federation


(IMG:http://metalarea.org/images/audiocovers/2019_Jul/acov_tid324440_thumb.jpg)

*Artist: Rick Wakeman
*Album: Journey To The Center Of The Earth [live]
*Year: 1974
*Genre: Progressive Rock
*Country: United Kingdom (IMG:http://metalarea.org/forum/style_images/flags/United%20Kingdom.png)
*Format: mp3@CBR320kbps
*Size: 82MB

Tracklist:
1. Journey - Recollection 21:20
2. Battle - The Forest 18:57
******************************
Total playing time: 40:17

(IMG:http://metalarea.org/images/youtube.png)

Technical info
(IMG:http://metalarea.org/images/spectrogram/2019_Jul/dbbc16b2c483bf049b1a289e4510e0cd.png)
Input File: 01 - Journey - Recollection.mp3
Channels : 2
Sample Rate : 44100
Precision : 16-bit
Duration : 00:21:09.94 = 56004398 samples = 95245.6 CDDA sectors
File Size : 50.8M
Bit Rate : 320k
Sample Encoding: MPEG audio (layer I, II or III)
Comments :
Title=Journey - Recollection
Artist=Rick Wakeman
Album=Journey To The Center Of The Earth
Tracknumber=01
Year=1974
Genre=Progressive Rock



Register


Thanks:
Go to the top of the page
  Insert nick Quick quote
+Quote Post
 
Start new topic
Replies (1 - 1)
post Jul 15 2019, 11:51:16
Post #2

Правь статус, ####!111
**************
Group: Металариец
Posts: 42,304
Releases: 638
On Forums: 10 years 2 months
Thanks: 33156 time(s)
Russian Federation


Отличнейший релиз (IMG:style_emoticons/default/27.gif)
Go to the top of the page
  Insert nick Quick quote
+Quote Post

Reply to this topicStart new topic
1 User(s) are reading this topic (1 Guests and 0 Anonymous Users)
0 Members:

 



- Lo-Fi Version Support form
Copyrights and abuse reports form
Time is now: 19th August 2019 - 04:26:37