Welcome Guest ( Log In | Register )

 
Reply to this topicStart new topic
> Vestal Claret - Reborn [ep] (2013), Heavy/Doom Metal
post Jul 15 2019, 13:27:15
Post #1

Cultist
**************
Group: Металариец
Posts: 3,986
Releases: 1253
From: Koenigsberg
On Forums: 12 years 9 months
Thanks: 7751 time(s)
Russian Federation


(IMG:http://metalarea.org/images/audiocovers/2019_Jul/acov_tid324458_thumb.jpg)

*Artist: Vestal Claret
*Album: Reborn [ep]
*Year: 2013
*Genre: Heavy/Doom Metal
*Country: United States (IMG:http://metalarea.org/forum/style_images/flags/United%20States.png)
*Format: mp3@VBR260kbps
*Size: 20MB

Tracklist:
1. Satanic Web (Swindler cover) 05:09
2. Satan Leave That Boy Alone (Holy Right cover) 05:16
******************************
Total playing time: 10:25

Technical info
(IMG:http://metalarea.org/images/spectrogram/2019_Jul/8c7f72ca9f494d18237da5b666090d93.png)
Input File: 04 - Submissive To Evil.mp3
Channels : 2
Sample Rate : 44100
Precision : 16-bit
Duration : 00:05:33.71 = 14716567 samples = 25028.2 CDDA sectors
File Size : 13.4M
Bit Rate : 320k
Sample Encoding: MPEG audio (layer I, II or III)
Comments :
Title=Submissive To Evil
Artist=Vestal Claret
Album=Bloodbath (Guest Version)
Tracknumber=4
Year=2011
Genre=Heavy/Doom Metal



Register


Go to the top of the page
  Insert nick Quick quote
+Quote Post

Reply to this topicStart new topic
1 User(s) are reading this topic (1 Guests and 0 Anonymous Users)
0 Members:

 



- Lo-Fi Version Support form
Copyrights and abuse reports form
Time is now: 23rd October 2019 - 01:49:50