Welcome Guest ( Log In | Register )

 
Reply to this topicStart new topic
> Restless Spirit - 1922 [ep] (2017), Doom Metal
post Jul 15 2019, 13:48:25
Post #1

Правь статус, ####!111
**************
Group: Металариец
Posts: 43,331
Releases: 654
On Forums: 10 years 4 months
Thanks: 34400 time(s)
Russian Federation


(IMG:https://metalarea.org/images/audiocovers/2019_Jul/acov_tid324461_thumb.jpg)

*Artist: Restless Spirit
*Album: 1922 [ep]
*Year: 2017
*Genre: Doom Metal
*Country: United States (IMG:https://metalarea.org/forum/style_images/flags/United%20States.png)
*Format: mp3@CBR320kbps
*Size: 28MB

Tracklist:
1. 13 Devils 05:07
2. Lord of the New Depression 03:29
3. Forever My Queen 03:47
******************************
Total playing time: 12:23



Technical info
(IMG:https://metalarea.org/images/spectrogram/2019_Jul/b2d35f1508200945ef11c9eae6d24982.png)
Input File: Restless Spirit - 1922 - 01 13 Devils.mp3
Channels : 2
Sample Rate : 44100
Precision : 16-bit
Duration : 00:05:07.16 = 13545932 samples = 23037.3 CDDA sectors
File Size : 12.3M
Bit Rate : 322k
Sample Encoding: MPEG audio (layer I, II or III)
Comments :
Title=13 Devils
Artist=Restless Spirit
Album=1922
Tracknumber=1
Year=2017



Register


Go to the top of the page
  Insert nick Quick quote
+Quote Post

Reply to this topicStart new topic
1 User(s) are reading this topic (1 Guests and 0 Anonymous Users)
0 Members:

 



- Lo-Fi Version Support form
Copyrights and abuse reports form
Time is now: 16th October 2019 - 22:37:20