Welcome Guest ( Log In | Register )

> И неформату есть предел.

Рэп/хип-хоп/шансон/поп удаляются. Для них есть свои порталы.

> ZZ Top - Tejas (1976), Blues Rock (D10)
post Jul 15 2019, 15:59:21
Post #1

Правь статус, ####!111
**************
Group: Металариец
Posts: 42,320
Releases: 638
On Forums: 10 years 2 months
Thanks: 33162 time(s)
Russian Federation


(IMG:http://metalarea.org/images/audiocovers/2019_Jul/acov_tid324471_thumb.jpg)

*Artist: ZZ Top
*Album: Tejas
*Year: 1976
*Genre: Blues Rock
*Country: United States (IMG:http://metalarea.org/forum/style_images/flags/United%20States.png)
*Format: mp3@CBR320kbps
*Size: 80MB

Tracklist:
1. It's Only Love
2. Arrested For Driving While Blind
3. El Diablo
4. Snappy Kakkie
5. Enjoy And Get It On
6. Ten Dollar Man
7. Pan Am Highway Blues
8. Avalon Hideaway
9. She's A Heartbreaker
10. Asleep In The Desert
******************************
Total playing time: 34:40

(IMG:http://metalarea.org/images/youtube.png)

Technical info
(IMG:http://metalarea.org/images/spectrogram/2019_Jul/cb9964fdbe95cf2874cee1be27c6b7e8.png)
Input File: 01. It's Only Love.mp3
Channels : 2
Sample Rate : 44100
Precision : 16-bit
Duration : 00:04:22.00 = 11554200 samples = 19650 CDDA sectors
File Size : 10.5M
Bit Rate : 321k
Sample Encoding: MPEG audio (layer I, II or III)
Comments :
Title=It's Only Love
Artist=ZZ Top
Album=Tejas
Tracknumber=01/10
Year=1976
Genre=Hard Rock



Register


Thanks:
(1) hammer,
Go to the top of the page
  Insert nick Quick quote
+Quote Post
 
Start new topic
Replies (1 - 3)
post Jul 16 2019, 08:55:31
Post #2

Правь статус, ####!111
**************
Group: Металариец
Posts: 42,320
Releases: 638
On Forums: 10 years 2 months
Thanks: 33162 time(s)
Russian Federation


Отличнейший, наихитовейший, разнообразный альбом (IMG:style_emoticons/default/8.gif)

Всем любителям великолепной музыки настоятельно не рекомендую проходить мимо!
Go to the top of the page
  Insert nick Quick quote
+Quote Post
post Jul 16 2019, 14:31:08
Post #3

И Ван Дамм По Делам Вашим!
**************
Group: Металариец
Posts: 17,441
Releases: 26
On Forums: 11 years 1 month
Thanks: 9324 time(s)
Honduras


Фиг с тобой , забрал тоже.


Thanks:
Go to the top of the page
  Insert nick Quick quote
+Quote Post
post Jul 16 2019, 14:33:25
Post #4

Правь статус, ####!111
**************
Group: Металариец
Posts: 42,320
Releases: 638
On Forums: 10 years 2 months
Thanks: 33162 time(s)
Russian Federation


Вот теперь тебя хвалю я (IMG:style_emoticons/default/1488.gif)
Go to the top of the page
  Insert nick Quick quote
+Quote Post

Reply to this topicStart new topic
1 User(s) are reading this topic (1 Guests and 0 Anonymous Users)
0 Members:

 



- Lo-Fi Version Support form
Copyrights and abuse reports form
Time is now: 19th August 2019 - 11:51:50