Welcome Guest ( Log In | Register )

Объявления

* gmail.com упорно продолжает считать почту с нас "unsolicited" и отбивает в том числе и письма активации, поэтому просьба использовать альтернативные почтовые ящики.
------------
* gmail.com continues reject all mail from us as "unsolicited" (activation mails too) therefore please use alternate mail servers.

> Forum rules / Правила раздела

Here go releases which can't go to New releases forums due lack of information, stolen links or incorrect data and just founded in other sites links with minimum info. Reissue of this releases through Add release form with added/corrected data, info and own links highly welcomed.

Сюда уходят релизы, не пропущенные в основные релизные форумы по причинам отсутствия, недостаточности или неверности/некорректности сопровождающей информации, содержащие ссылки, указывающие на файлы, залитые не автором темы, а так же просто найденные где-то ссылки с минимумом информации. Переоформление тем отсюда через форму Добавления релиза с перезаливкой ссылок крайне приветствуется.

> Purgatory - 20 Years Underground [compilation] (2013), Death Metal (D)
post Jul 16 2019, 14:04:53
Post #1

Три Литра
***
Group: Завсегдатай
Posts: 230
Releases: 0
From: Singapore
On Forums: 5 years 4 months
Thanks: 433 time(s)
Unknown


(IMG:http://metalarea.org/images/audiocovers/2019_Jul/acov_tid324508_thumb.jpg)

*Artist: Purgatory
*Album: 20 Years Underground [compilation]
*Year: 2013
*Genre: Death Metal
*Country: Germany (IMG:http://metalarea.org/forum/style_images/flags/Germany.png)
*Format: mp3@CBR192kbps
*Size: 180MB

Tracklist:
Side A
1. Spreading the Plague 03:51
2. Necrocannibalistical Insanity 04:13
3. Back from the Shadowlands 04:04
4. Captured Souls 03:54
5. Death World Struggle 03:46
6. Final Chasm / Stream of Anguish 02:04
7. Seeds of Annihilation 03:21
Side B
8. Serpent Creation 03:25
9. Hammering the Nails 05:23
10. Burial of a Plague 03:36
11. Chaos Aeon 02:46
12. Onward to the Burning Shores 03:34
13. Forbidden Wisdom 03:23
14. The Enemy Within 03:52
******************************
Total playing time: 51:12

Extended info
This record contains a new song, re-recorded and unreleased songs, cover versions, live tracks and pre-production versions.

Side A:
1. - new song 2013
2. - re-recorded 2013
3. - re-recorded 2013
4. - re-recorded 2013
5. - re-recorded 2013
6. - Blood cover version 2009
7. - "Luciferianism" pre-production 2004
Side B:
1. - "Luciferianism" pre-production 2004
2. - "Cultus Luciferi" pre-production 2007
3. - "Cultus Luciferi" pre-production 2007
4. - "Cultus Luciferi" pre-production 2007
5. - "Deathkvlt" pre-production demo 2012
6. - live at Stromgitarrenfest 2010
7. - live at Stromgitarrenfest 2010

2-CD digibook bonus CD:

1 - Masturbation of bowels (1993 Psychopathia Sexualis EP)
2 - Children of derversion (1993 Psychopathia Sexualis EP)
3 - Necrocannibalistical unsanity (1993 Psychopathia Sexualis EP)
4 - Psychopathia sexualis (1993 Psychopathia Sexualis EP)
5 - Frozen braincells (1994 Sadistic Spell EP)
6 - Darorysm of mortal list (1994 Sadistic Spell EP)
7 - Sadistic spell (1994 Sadistic Spell EP)
8 - Necromanical necropsy (1994 Sadistic Spell EP)
9 - Ulcer of hate (1997 Split EP)
10 - Tormento flesh (1997 Split EP)
11 - Boneyard - Undetygd lover (1997 Bestial LP)
12 - The rads - Asphyx lover (200 Blessed with flames of Hate LP)
13 - Fiend for blood - Ahidpsy lover(2003 Split EP)
14 - Corporation dull an - Terrdryzer lover (2003 Split EP)
15 - Captured souls - (Live 2000) (2003 Split EP)
16 - Moment of identity / Process of cremation (1993 Live Performance Demo)
17 - Children of perversion (1993 Live Performance Demo)
18 - Lord of purrefaction (1993 Live Performance Demo)
19 - Masturbation of bowels (1993 Live Performance Demo)
20 - Dark reality (1993 Live Performance Demo)
21 - Boneyard - Undetygd lover (1993 Live Performance Demo)


Technical info
(IMG:http://metalarea.org/images/spectrogram/2019_Jul/ce71f78adac55805fb78eb09d4892a41.png)
Input File: purgatory-03-back from the shadowlands.mp3
Channels : 2
Sample Rate : 44100
Precision : 16-bit
Duration : 00:04:04.87 = 10798591 samples = 18365 CDDA sectors
File Size : 5.88M
Bit Rate : 192k
Sample Encoding: MPEG audio (layer I, II or III)
Comments :
Title=Back From The Shadowlands
Artist=Purgatory
Album=20 Years Underground CD1
Tracknumber=03
Year=2014
Genre=Death Metal



Register


Thanks:
Go to the top of the page
  Insert nick Quick quote
+Quote Post
 
Start new topic
Replies (1 - 4)
post Jul 18 2019, 16:45:30
Post #2

Маньяк
**********
Group: Металариец
Posts: 1,146
Releases: 83
On Forums: 18 years 2 months
Thanks: 2841 time(s)
Germany


link doesn't work! megaupload doesn't exist anymore.. (IMG:style_emoticons/default/smile3.gif)
Go to the top of the page
  Insert nick Quick quote
+Quote Post
post Apr 25 2022, 01:31:10
Post #3

aggresive exumator!
**********
Group: Металариец
Posts: 1,488
Releases: 0
On Forums: 12 years 7 months
Thanks: 55 time(s)
Unknown


reupload please
Go to the top of the page
  Insert nick Quick quote
+Quote Post
post Apr 25 2022, 06:31:00
Post #4

hearer & reader
**************
Group: Металариец
Posts: 10,927
Releases: 234
From: Moscow
On Forums: 16 years 8 months
Thanks: 13668 time(s)
Russian Federation


Ищу... Нашёл! Всё те же 192
Register


Go to the top of the page
  Insert nick Quick quote
+Quote Post
post Apr 14 2024, 03:45:35
Post #5

Правь статус, ####!111
**************
Group: Металариец
Posts: 8,792
Releases: 197
From: HELL
On Forums: 17 years 7 months
Thanks: 30491 time(s)
Uruguay


mp3@320+Scans
Register


Thanks:
Go to the top of the page
  Insert nick Quick quote
+Quote Post

Reply to this topicStart new topic
2 User(s) are reading this topic (2 Guests and 0 Anonymous Users)
0 Members:

 



- Lo-Fi Version Support form
Copyrights and abuse reports form
Time is now: 21st May 2024 - 08:33:53