Welcome Guest ( Log In | Register )

> И неформату есть предел.

Рэп/хип-хоп/шансон/поп удаляются. Для них есть свои порталы.

> Black Mountain - Destroyer (2019), Psychedelic/Stoner Rock
post Jul 17 2019, 10:51:18
Post #1

Правь статус, ####!111
**************
Group: Металариец
Posts: 42,438
Releases: 641
On Forums: 10 years 2 months
Thanks: 33275 time(s)
Russian Federation


(IMG:http://metalarea.org/images/audiocovers/2019_Jul/acov_tid324538_thumb.jpg)

*Artist: Black Mountain
*Album: Destroyer
*Year: 2019
*Genre: Psychedelic/Stoner Rock
*Country: United States (IMG:http://metalarea.org/forum/style_images/flags/United%20States.png)
*Format: mp3@CBR320kbps
*Size: 98MB

Tracklist:
1. Future Shade 05:10
2. Horns Arising 06:51
3. Closer to the Edge 02:53
4. High Rise 06:11
5. Pretty Little Lazies 04:58
6. Boogie Lover 06:18
7. Licensed to Drive 04:44
8. FD'72 05:47
******************************
Total playing time: 42:52



Technical info
(IMG:http://metalarea.org/images/spectrogram/2019_Jul/e763a0ae298763bf5d742c0b8c4c78ba.png)
Input File: 01. Future Shade.mp3
Channels : 2
Sample Rate : 44100
Precision : 16-bit
Duration : 00:05:10.98 = 13714306 samples = 23323.6 CDDA sectors
File Size : 12.5M
Bit Rate : 322k
Sample Encoding: MPEG audio (layer I, II or III)
Comments :
Title=Future Shade
Artist=Black Mountain
Album=Destroyer
Tracknumber=1
Year=2019
Genre=Rock



Register


Go to the top of the page
  Insert nick Quick quote
+Quote Post
 
Start new topic
Replies (1 - 6)
post Jul 17 2019, 15:43:08
Post #2

Правь статус, ####!111
**************
Group: Металариец
Posts: 42,438
Releases: 641
On Forums: 10 years 2 months
Thanks: 33275 time(s)
Russian Federation


Отдельных слов восхищения здесь заслуживает вокал (IMG:style_emoticons/default/pray.gif) (IMG:style_emoticons/default/pray.gif) (IMG:style_emoticons/default/pray.gif) Подобного великолепия давно не приходилось слышать в жанровой музыке.

Кручинин, только посмей не ознакомиться - прокляну (IMG:style_emoticons/default/25.gif) Здесь как раз твое поле.
Go to the top of the page
  Insert nick Quick quote
+Quote Post
post Jul 18 2019, 13:12:22
Post #3

Правь статус, ####!111
**************
Group: Металариец
Posts: 42,438
Releases: 641
On Forums: 10 years 2 months
Thanks: 33275 time(s)
Russian Federation


Я не понял, кручинин где?
Go to the top of the page
  Insert nick Quick quote
+Quote Post
post Jul 18 2019, 16:59:26
Post #4

Семь Литров
*******
Group: Металариец
Posts: 718
Releases: 0
On Forums: 11 years 10 months
Thanks: 269 time(s)
Belarus


80-й (IMG:style_emoticons/default/alkash.gif) за православные релизы


Thanks:
Go to the top of the page
  Insert nick Quick quote
+Quote Post
post Jul 18 2019, 17:09:05
Post #5

Правь статус, ####!111
**************
Group: Металариец
Posts: 42,438
Releases: 641
On Forums: 10 years 2 months
Thanks: 33275 time(s)
Russian Federation


ЦИТАТА(gena @ Jul 18 2019, 19:59:26) *
80-й (IMG:style_emoticons/default/alkash.gif) за православные релизы


Все для вас, мои дорогие, все для вас (IMG:style_emoticons/default/bye.gif)


Thanks:
(1) gena,
Go to the top of the page
  Insert nick Quick quote
+Quote Post
post Jul 19 2019, 07:09:33
Post #6

South Of Heaven /адепт ВУДУ
**************
Group: Металариец
Posts: 13,795
Releases: 9
On Forums: 9 years 4 months
Thanks: 5158 time(s)
Unknown


Записал в блокнотик (IMG:style_emoticons/default/23.gif)

https://en.wikipedia.org/wiki/Black_Mountai...nd)#Discography
Go to the top of the page
  Insert nick Quick quote
+Quote Post
post Jul 19 2019, 07:35:45
Post #7

Штопор Давай
***
Group: Завсегдатай
Posts: 278
Releases: 3
On Forums: 6 years 9 months
Thanks: 120 time(s)
Russian Federation


ох как подхватило и понесло!!! (IMG:style_emoticons/default/metaler.gif) (IMG:style_emoticons/default/alkash.gif)


Thanks:
Go to the top of the page
  Insert nick Quick quote
+Quote Post

Reply to this topicStart new topic
2 User(s) are reading this topic (2 Guests and 0 Anonymous Users)
0 Members:

 



- Lo-Fi Version Support form
Copyrights and abuse reports form
Time is now: 23rd August 2019 - 09:51:30