Welcome Guest ( Log In | Register )

> И неформату есть предел.

Рэп/хип-хоп/шансон/поп удаляются. Для них есть свои порталы.

 
Reply to this topicStart new topic
> Arctic Sleep - Realms (2013), Drone Ambient (D)
post Jul 19 2019, 09:50:00
Post #1

Cultist
**************
Group: Металариец
Posts: 3,764
Releases: 1219
From: Koenigsberg
On Forums: 12 years 7 months
Thanks: 7202 time(s)
Russian Federation


(IMG:http://metalarea.org/images/audiocovers/2019_Jul/acov_tid324642_thumb.jpg)

*Artist: Arctic Sleep
*Album: Realms
*Year: 2013
*Genre: Drone Ambient
*Country: United States (IMG:http://metalarea.org/forum/style_images/flags/United%20States.png)
*Format: mp3@CBR320kbps
*Size: 120MB

Tracklist:
1.Portal To Infinity 19:45
2.Shimmering Cave Crystals Of Eternity 11:57
3.Rays Beaming From The Temple Spirits 12:30
4.Ascension To The Realms Of Boundless Moonlight 07:36
******************************
Total playing time: 51:48



Technical info
(IMG:http://metalarea.org/images/spectrogram/2019_Jul/0a175d43fc0b7214d1393a55217482b7.png)
Input File: 03 - Rays Beaming From The Temple Spirits.mp3
Channels : 2
Sample Rate : 44100
Precision : 16-bit
Duration : 00:12:31.04 = 33120820 samples = 56327.9 CDDA sectors
File Size : 30.1M
Bit Rate : 320k
Sample Encoding: MPEG audio (layer I, II or III)
Comments :
Title=Rays Beaming From The Temple Spirits
Artist=Arctic Sleep
Album=Realms
Tracknumber=3
Year=2013
Genre=Drone Ambient



Register


Thanks:
(1) Olethros,
Go to the top of the page
  Insert nick Quick quote
+Quote Post

Reply to this topicStart new topic
1 User(s) are reading this topic (1 Guests and 0 Anonymous Users)
0 Members:

 



- Lo-Fi Version Support form
Copyrights and abuse reports form
Time is now: 19th August 2019 - 00:59:39