Welcome Guest ( Log In | Register )

> И неформату есть предел.

Рэп/хип-хоп/шансон/поп удаляются. Для них есть свои порталы.

> Gregorian - Masters Of Chant (1999), New Age/Chant
post Jul 19 2019, 14:41:15
Post #1

Правь статус, ####!111
**************
Group: Металариец
Posts: 42,301
Releases: 638
On Forums: 10 years 2 months
Thanks: 33147 time(s)
Russian Federation


(IMG:http://metalarea.org/images/audiocovers/2019_Jul/acov_tid324653_thumb.jpg)

*Artist: Gregorian
*Album: Masters Of Chant
*Year: 1999
*Genre: New Age/Chant
*Country: Germany (IMG:http://metalarea.org/forum/style_images/flags/Germany.png)
*Format: mp3@CBR320kbps
*Size: 156MB

Tracklist:
1. Brothers In Arms
2. Scarborough Fair
3. Tears In Heaven
4. Still I'm Sad
5. When A Man Loves A Woman
6. Nothing Else Matters
7. Fade To Grey
8. Losing My Religion
9. Vienna
10. The Sound Of Silence
11. Sebastian
12. Don't Give Up
13. Save A Prayer
14. I Still Haven't Found What I'm Looking For (Radio Edit)
******************************
Total playing time: 1:01:24

(IMG:http://metalarea.org/images/youtube.png)

Technical info
(IMG:http://metalarea.org/images/spectrogram/2019_Jul/184596dfb78fee491e53262c711ecf1b.png)
Input File: 01. Gregorian - Brothers In Arms.mp3
Channels : 2
Sample Rate : 44100
Precision : 16-bit
Duration : 00:05:56.33 = 15714285 samples = 26725 CDDA sectors
File Size : 14.3M
Bit Rate : 320k
Sample Encoding: MPEG audio (layer I, II or III)
Comments :
Title=Brothers In Arms
Artist=Gregorian
Album=Masters Of Chant
Tracknumber=01
Year=1999
Genre=Ambientpop



Register


Thanks:
Go to the top of the page
  Insert nick Quick quote
+Quote Post
 
Start new topic
Replies (1 - 1)
post Jul 19 2019, 16:34:13
Post #2

Правь статус, ####!111
**************
Group: Металариец
Posts: 42,301
Releases: 638
On Forums: 10 years 2 months
Thanks: 33147 time(s)
Russian Federation


Этой команде хорошо и интересно удается делать каверы на классику тяжа и рока.
Go to the top of the page
  Insert nick Quick quote
+Quote Post

Reply to this topicStart new topic
1 User(s) are reading this topic (1 Guests and 0 Anonymous Users)
0 Members:

 



- Lo-Fi Version Support form
Copyrights and abuse reports form
Time is now: 18th August 2019 - 16:58:08