Welcome Guest ( Log In | Register )

> И неформату есть предел.

Рэп/хип-хоп/шансон/поп удаляются. Для них есть свои порталы.

 
Reply to this topicStart new topic
> Sartanah - R.I.P. [ep] (2013), Psychedelic/Surf Rock/Instrumental
post Jul 21 2019, 04:59:30
Post #1

Четыре Литра
****
Group: Металариец
Posts: 397
Releases: 88
From: Moscow
On Forums: 13 years 4 months
Thanks: 2351 time(s)
Russian Federation


(IMG:https://metalarea.org/images/audiocovers/2019_Jul/acov_tid324705_thumb.jpg)

*Artist: Sartanah
*Album: R.I.P. [ep]
*Year: 2013
*Genre: Psychedelic/Surf Rock/Instrumental
*Country: Italy (IMG:https://metalarea.org/forum/style_images/flags/Italy.png)
*Format: mp3@CBR320kbps
*Size: 75MB

Tracklist:
01. Santannera (the Undertaker) 05:30
02. Psychedelic Surf 05:02
03. R.I.P. 05:56
04. Vento alla Polvere 05:13
05. Nocturama 03:41
06. Mezzanotte di Fuoco 06:08
******************************
Total playing time: 31:30



Extended info
Проект Agghiastru из Inchiuvatu, чей альбом Addisiu меня как зацепил в конце 90х, так до сих пор не отпускает.


Technical info
(IMG:https://metalarea.org/images/spectrogram/2019_Jul/cf697867237c6bea3f16fb227bb99433.png)
Input File: 01 - Santannèra (the Undertaker).mp3
Channels : 2
Sample Rate : 44100
Precision : 16-bit
Duration : 00:05:30.91 = 14593307 samples = 24818.5 CDDA sectors
File Size : 13.4M
Bit Rate : 323k
Sample Encoding: MPEG audio (layer I, II or III)
Comments :
Title=Santannèra (the Undertaker)
Artist=Sartanah
Album=R.I.P. EP
Tracknumber=1
Year=2013
Genre=Psychedelic Rock



Register


Thanks:
(1) Olethros,
Go to the top of the page
  Insert nick Quick quote
+Quote Post

Reply to this topicStart new topic
1 User(s) are reading this topic (1 Guests and 0 Anonymous Users)
0 Members:

 



- Lo-Fi Version Support form
Copyrights and abuse reports form
Time is now: 20th August 2019 - 21:11:39