Welcome Guest ( Log In | Register )

> И неформату есть предел.

Рэп/хип-хоп/шансон/поп удаляются. Для них есть свои порталы.

> Hocico - Artificial Extinction (2019), Dark Electro (D7)
post Jul 21 2019, 06:57:07
Post #1

WINTER
******
Group: Металариец
Posts: 696
Releases: 64
On Forums: 11 years 4 months
Thanks: 1718 time(s)
Russian Federation


(IMG:https://metalarea.org/images/audiocovers/2019_Jul/acov_tid324711_thumb.jpg)

*Artist: Hocico
*Album: Artificial Extinction
*Year: 2019
*Genre: Dark Electro
*Country: Mexico (IMG:https://metalarea.org/forum/style_images/flags/Mexico.png)
*Format: mp3@CBR320kbps
*Size: 132MB

Tracklist:
1. Dark Sunday 5:49
2. El Ballet Mecanico 4:20
3. Artificial Extinction 5:06
4. Blinded Race 4:34
5. Shut Me Down! 5:32
6. Psychonaut 5:42
7. Damaged 5:18
8. Breathing Under Your Feet 4:41
9. Cross The Line 5:05
10. Palabras De Sangre 6:29
11. Quiet Zone (In Dead Silence) 4:34
******************************
Total playing time: 57:10

(IMG:https://metalarea.org/images/youtube.png)

Extended info
FLAC RIP


Technical info
(IMG:https://metalarea.org/images/spectrogram/2019_Jul/b0f356a2a58cbd22f19693832f5bb277.png)
Input File: 03. Artificial Extinction.mp3
Channels : 2
Sample Rate : 44100
Precision : 16-bit
Duration : 00:05:05.61 = 13477577 samples = 22921 CDDA sectors
File Size : 12.4M
Bit Rate : 324k
Sample Encoding: MPEG audio (layer I, II or III)
Comments :
Title=Artificial Extinction
Artist=Hocico
Album=Artificial Extinction
Tracknumber=3
Year=2019
Genre=Dark Electro



Register


Go to the top of the page
  Insert nick Quick quote
+Quote Post
 
Start new topic
Replies (1 - 5)
post Jul 21 2019, 08:07:27
Post #2

poison creosote
******
Group: Металариец
Posts: 695
Releases: 1
On Forums: 2 years 2 months
Thanks: 354 time(s)
Iceland


Стиль узнаваем остался, но хитов чёто совсем нет, да и примеси с драмчиком не пошли на пользу.

Далеко не лучшая их работа, но слушать всё ещё можно.


Thanks:
(1) Evjenne,
Go to the top of the page
  Insert nick Quick quote
+Quote Post
post Jul 23 2019, 01:13:55
Post #3

Маньяк
**********
Group: Металариец
Posts: 1,432
Releases: 0
On Forums: 10 years 5 months
Thanks: 530 time(s)
Antarctica


По превью - это не дарк электро. Атмосферы, погружения нет.
Go to the top of the page
  Insert nick Quick quote
+Quote Post
post Jul 23 2019, 05:12:30
Post #4

Три Литра
***
Group: Завсегдатай
Posts: 225
Releases: 0
From: Ташкент
On Forums: 11 years 6 months
Thanks: 57 time(s)
Uzbekistan


Какого фига они полезли на территорию Продиги, непонятно.
Go to the top of the page
  Insert nick Quick quote
+Quote Post
post Jul 23 2019, 10:14:59
Post #5

Правь статус, ####!111
**************
Group: Металариец
Posts: 42,304
Releases: 638
On Forums: 10 years 2 months
Thanks: 33157 time(s)
Russian Federation


До Продиджи им как Флинстоуну на своей деревянной развалюхе до Кадиллака. (IMG:style_emoticons/default/1488.gif)
Go to the top of the page
  Insert nick Quick quote
+Quote Post
post Jul 23 2019, 17:54:31
Post #6

Два Литра
**
Group: Завсегдатай
Posts: 166
Releases: 3
From: Mосква,Ново-Переделкино
On Forums: 12 years 8 months
Thanks: 24 time(s)
Russian Federation


ЦИТАТА(Krosis @ Jul 21 2019, 10:07:27) *
Стиль узнаваем остался, но хитов чёто совсем нет, да и примеси с драмчиком не пошли на пользу.

Далеко не лучшая их работа, но слушать всё ещё можно.

не знаю,я штук 5 как минимум нашел для себя в отличии от предыдущего альбома,особенно Palabras De Sangre
Go to the top of the page
  Insert nick Quick quote
+Quote Post

Reply to this topicStart new topic
2 User(s) are reading this topic (2 Guests and 0 Anonymous Users)
0 Members:

 



- Lo-Fi Version Support form
Copyrights and abuse reports form
Time is now: 19th August 2019 - 07:27:41