Welcome Guest ( Log In | Register )

 
Reply to this topicStart new topic
> The Flame And The Void - Sparks And Embers [ep] (2019), Heavy Metal/Hard Rock
post Jul 21 2019, 09:15:31
Post #1

MDM-Thrash Metal
**************
Group: Металариец
Posts: 9,123
Releases: 754
From: Одесса
On Forums: 12 years 4 months
Thanks: 20097 time(s)
Ukraine


(IMG:http://metalarea.org/images/audiocovers/2019_Jul/acov_tid324715_thumb.jpg)

*Artist: The Flame And The Void
*Album: Sparks And Embers [ep]
*Year: 2019
*Genre: Heavy Metal/Hard Rock
*Country: United States (IMG:http://metalarea.org/forum/style_images/flags/United%20States.png)
*Format: mp3@CBR320kbps
*Size: 66MB

Tracklist:
01. Suspension
02. Changes
03. Blackberry Bruises
04. Who Will Show
05. My Own Worst Enemy
06. Light It Up
******************************
Total playing time: 28:24



(IMG:http://metalarea.org/images/youtube.png)

Technical info
(IMG:http://metalarea.org/images/spectrogram/2019_Jul/517108140f26bb2f79b6b43dbf157e32.png)
Input File: 02_the_flame_and_the_void_changes.mp3
Channels : 2
Sample Rate : 44100
Precision : 16-bit
Duration : 00:05:11.66 = 13744250 samples = 23374.6 CDDA sectors
File Size : 12.6M
Bit Rate : 323k
Sample Encoding: MPEG audio (layer I, II or III)
Comments :
Title=Changes
Artist=The Flame and the Void
Album=Sparks and Embers
Tracknumber=2/6
Year=2019
Genre=17
Discnumber=1/1



Register


Go to the top of the page
  Insert nick Quick quote
+Quote Post

Reply to this topicStart new topic
1 User(s) are reading this topic (1 Guests and 0 Anonymous Users)
0 Members:

 



- Lo-Fi Version Support form
Copyrights and abuse reports form
Time is now: 12th December 2019 - 04:15:52