Welcome Guest ( Log In | Register )

> Abounding - When Sought (2019), Progressive Black/Death Metal
post Jul 21 2019, 09:17:07
Post #1

Правь статус, ####!111
**************
Group: Металариец
Posts: 20,325
Releases: 13857
From: Г.Харьков
On Forums: 7 years 8 months
Thanks: 242882 time(s)
Unknown


(IMG:https://metalarea.org/images/audiocovers/2019_Jul/acov_tid324716_thumb.jpg)

*Artist: Abounding
*Album: When Sought
*Year: 2019
*Genre: Progressive Black/Death Metal
*Country: United States (IMG:https://metalarea.org/forum/style_images/flags/United%20States.png)
*Format: mp3@CBR320kbps
*Size: 130MB

Tracklist:
1. This Caustic 07:06
2. Violet 07:43
3. Placid 06:03
4. Needless 03:09
5. And Inert 07:02
6. On Erosion 05:07
7. Encompass 06:02
8. When Sought 04:00
9. Tangled Light 10:06
******************************
Total playing time: 56:18




Extended info
Evan Sandy Drums, Keyboards (2014-present)
See also: Loggerhead, ex-Ridge
Seth Stanfield Guitars (electric, acoustic), Bass, Vocals, Keyboards, Programming (2014-present)
See also: ex-Ridge


Technical info
(IMG:https://metalarea.org/images/spectrogram/2019_Jul/3221d0c5eec674d13bd30ce74531699a.png)
Input File: 03 - Placid.mp3
Channels : 2
Sample Rate : 44100
Precision : 16-bit
Duration : 00:06:03.28 = 16020560 samples = 27245.9 CDDA sectors
File Size : 14.8M
Bit Rate : 325k
Sample Encoding: MPEG audio (layer I, II or III)
Comments :
Title=Placid
Artist=Abounding
Album=When Sought
Tracknumber=3
Year=2019



Register


Go to the top of the page
  Insert nick Quick quote
+Quote Post
 
Start new topic
Replies (1 - 1)
post Jul 21 2019, 19:21:29
Post #2

Правь статус, ####!111
**************
Group: Металариец
Posts: 20,325
Releases: 13857
From: Г.Харьков
On Forums: 7 years 8 months
Thanks: 242882 time(s)
Unknown


Cloud Mail 320
Register


Go to the top of the page
  Insert nick Quick quote
+Quote Post

Reply to this topicStart new topic
1 User(s) are reading this topic (1 Guests and 0 Anonymous Users)
0 Members:

 



- Lo-Fi Version Support form
Copyrights and abuse reports form
Time is now: 26th January 2020 - 11:06:00