Welcome Guest ( Log In | Register )

> Releases Upload / Добавление релизов

Добавить релиз тут / Click here to add release
Рекомендованные обменники / Recommended file shares

> Trevose - Bulletproof Monster (2019), Heavy/Thrash Metal
post Jul 21 2019, 10:25:57
Post #1

Правь статус, ####!111
**************
Group: Металариец
Posts: 18,155
Releases: 12282
From: Г.Харьков
On Forums: 7 years 3 months
Thanks: 206978 time(s)
Unknown


(IMG:https://metalarea.org/images/audiocovers/2019_Jul/acov_tid324720_thumb.jpg)

*Artist: Trevose
*Album: Bulletproof Monster
*Year: 2019
*Genre: Heavy/Thrash Metal
*Country: Brazil (IMG:https://metalarea.org/forum/style_images/flags/Brazil.png)
*Format: mp3@CBR320kbps
*Size: 108MB

Tracklist:
1. Burning
2. My Underworld
3. Fight Fro Freedom
4. Desecration
5. Darekest Hell
6. Faithless Mind
7. Killing Crown
8. Man In The Mirror
9. Die For The Anthem
10. Last Words
******************************
Total playing time: 46:14



Extended info
Alisson Zakka - Vocals & Guitar
Leandro Miguel - Guitar
Bruno Resende - Bass
Paulinho Oliveira - Drums



Technical info
(IMG:https://metalarea.org/images/spectrogram/2019_Jul/976c8b4facbba1b4e3222b09115fbd2f.png)
Input File: 04 - Desecration.mp3
Channels : 2
Sample Rate : 44100
Precision : 16-bit
Duration : 00:04:18.34 = 11392750 samples = 19375.4 CDDA sectors
File Size : 10.6M
Bit Rate : 327k
Sample Encoding: MPEG audio (layer I, II or III)
Comments :
Title=Desecration
Artist=Trevose
Album=Bulletproof Monster
Tracknumber=4
Year=2019



Register


Go to the top of the page
  Insert nick Quick quote
+Quote Post
 
Start new topic
Replies (1 - 2)
post Jul 21 2019, 19:27:13
Post #2

Правь статус, ####!111
**************
Group: Металариец
Posts: 18,155
Releases: 12282
From: Г.Харьков
On Forums: 7 years 3 months
Thanks: 206978 time(s)
Unknown


Cloud Mail 320
Register
Go to the top of the page
  Insert nick Quick quote
+Quote Post
post Jul 21 2019, 21:02:42
Post #3

MDM-Thrash Metal
**************
Group: Металариец
Posts: 8,533
Releases: 565
From: Одесса
On Forums: 12 years 1 week
Thanks: 16576 time(s)
Ukraine


Go to the top of the page
  Insert nick Quick quote
+Quote Post

Reply to this topicStart new topic
1 User(s) are reading this topic (1 Guests and 0 Anonymous Users)
0 Members:

 



- Lo-Fi Version Support form
Copyrights and abuse reports form
Time is now: 21st August 2019 - 15:04:57