Welcome Guest ( Log In | Register )

> Zeit - Into The Vacuum (2019), Heavy/Stoner Metal/Hard Rock
post Jul 21 2019, 10:49:18
Post #1

Правь статус, ####!111
**************
Group: Металариец
Posts: 19,772
Releases: 13408
From: Г.Харьков
On Forums: 7 years 6 months
Thanks: 231781 time(s)
Unknown


(IMG:https://metalarea.org/images/audiocovers/2019_Jul/acov_tid324721_thumb.jpg)

*Artist: Zeit
*Album: Into The Vacuum
*Year: 2019
*Genre: Heavy/Stoner Metal/Hard Rock
*Country: Spain (IMG:https://metalarea.org/forum/style_images/flags/Spain.png)
*Format: mp3@CBR320kbps
*Size: 71MB

Tracklist:
1. Golden Chains
2. Blood Diamonds
3. Stab in the Back
4. Not Gods, Not War
5. Darkness Ways
6. The Haunted
7. Denied
8. Masterchild
******************************
Total playing time: 30:22




Extended info
Sir Beljerick: Lead Vocals.
Paul White: Guitar.
Pibi: Drummer.
Mario: Bass


Technical info
(IMG:https://metalarea.org/images/spectrogram/2019_Jul/9f9025cd206d9222320dfb17ce76ab26.png)
Input File: 05 - Darkness Ways.mp3
Channels : 2
Sample Rate : 44100
Precision : 16-bit
Duration : 00:03:51.07 = 10189967 samples = 17329.9 CDDA sectors
File Size : 9.45M
Bit Rate : 327k
Sample Encoding: MPEG audio (layer I, II or III)
Comments :
Title=Darkness Ways
Artist=Zeit
Album=Into the Vacuum
Tracknumber=5
Year=2019



Register


Go to the top of the page
  Insert nick Quick quote
+Quote Post
 
Start new topic
Replies (1 - 1)
post Jul 21 2019, 19:30:15
Post #2

Правь статус, ####!111
**************
Group: Металариец
Posts: 19,772
Releases: 13408
From: Г.Харьков
On Forums: 7 years 6 months
Thanks: 231781 time(s)
Unknown


Cloud Mail 320
Register
Go to the top of the page
  Insert nick Quick quote
+Quote Post

Reply to this topicStart new topic
1 User(s) are reading this topic (1 Guests and 0 Anonymous Users)
0 Members:

 



- Lo-Fi Version Support form
Copyrights and abuse reports form
Time is now: 6th December 2019 - 11:51:15