Welcome Guest ( Log In | Register )

> Releases Upload / Добавление релизов

Добавить релиз тут / Click here to add release
Рекомендованные обменники / Recommended file shares

> Verikaski - Surmankoi [ep] (2019), Black Metal
post Jul 21 2019, 11:53:20
Post #1

Правь статус, ####!111
**************
Group: Металариец
Posts: 3,822
Releases: 923
From: Brazil
On Forums: 7 years 6 months
Thanks: 34191 time(s)
Brazil


(IMG:https://metalarea.org/images/audiocovers/2019_Jul/acov_tid324722_thumb.jpg)

*Artist: Verikaski
*Album: Surmankoi [ep]
*Year: 2019
*Genre: Black Metal
*Country: Finland (IMG:https://metalarea.org/forum/style_images/flags/Finland.png)
*Format: mp3@CBR320kbps
*Size: 45MB

Tracklist:
1. Teuras 06:21
2. Kiro 05:40
3. Ikuinen Tyven 07:32
******************************
Total playing time: 19:33

Technical info
(IMG:https://metalarea.org/images/spectrogram/2019_Jul/ffffb5893d70c4401c4b35df72110e60.png)
Input File: 02 Kiro.mp3
Channels : 2
Sample Rate : 44100
Precision : 16-bit
Duration : 00:05:41.07 = 15041319 samples = 25580.5 CDDA sectors
File Size : 13.6M
Bit Rate : 320k
Sample Encoding: MPEG audio (layer I, II or III)
Comments :
Title=Kiro
Artist=Verikaski
Album=Surmankoi
Tracknumber=2
Year=2019



Register


Go to the top of the page
  Insert nick Quick quote
+Quote Post
 
Start new topic
Replies (1 - 1)
post Jul 21 2019, 20:13:15
Post #2

Мегаманьяк
***********
Group: Металариец
Posts: 1,532
Releases: 24
From: Spain
On Forums: 11 years 11 months
Thanks: 1212 time(s)
Spain


Register


Thanks:
(1) dagger666,
Go to the top of the page
  Insert nick Quick quote
+Quote Post

Reply to this topicStart new topic
1 User(s) are reading this topic (1 Guests and 0 Anonymous Users)
0 Members:

 



- Lo-Fi Version Support form
Copyrights and abuse reports form
Time is now: 24th August 2019 - 15:06:52