Welcome Guest ( Log In | Register )

> Releases Upload / Добавление релизов

Добавить релиз тут / Click here to add release
Рекомендованные обменники / Recommended file shares

 
Reply to this topicStart new topic
> Lord Rot & VHS - Lord Rot/VHS [split] (2018), Death Metal | Death/Thrash Metal/Grindcore
post Jul 21 2019, 15:59:10
Post #1

Правь статус, ####!616
**************
Group: Металариец
Posts: 4,674
Releases: 3257
From: 55°35’N 38°08’E
On Forums: 11 years 1 month
Thanks: 61283 time(s)
Unknown


(IMG:http://metalarea.org/images/audiocovers/2019_Jul/acov_tid324725_thumb.png)

*Artist: Lord Rot & VHS
*Album: Lord Rot/VHS [split]
*Year: 2018
*Genre: Death Metal | Death/Thrash Metal/Grindcore
*Country: United Kingdom (IMG:http://metalarea.org/forum/style_images/flags/United%20Kingdom.png) | Canada (IMG:http://metalarea.org/forum/style_images/flags/Canada.png)
*Format: mp3@CBR320kbps
*Size: 33MB

Tracklist:
Lord Rot:
1.Flowers of Flesh and Blood 04:14
2.Flayed Alive 02:06
VHS:
3.August 18th, 1973 03:26
4.Leatherface 01:29
5.Human Head Cheese 00:59
6.Chainsaw (The Ramones) 01:24
******************************
Total playing time: 13:38






Technical info
(IMG:http://metalarea.org/images/spectrogram/2019_Jul/71cd980b20c546eac3bac1ef1099634b.png)
Input File: 01 Lord Rot - Flowers of Flesh and Blood.mp3
Channels : 2
Sample Rate : 44100
Precision : 16-bit
Duration : 00:04:14.08 = 11205104 samples = 19056.3 CDDA sectors
File Size : 10.3M
Bit Rate : 324k
Sample Encoding: MPEG audio (layer I, II or III)
Comments :
Title=Flowers of Flesh and Blood
Artist=Lord Rot
Album=Lord Rot / VHS
Tracknumber=1
Year=2018
Genre=Metal



Register


Go to the top of the page
  Insert nick Quick quote
+Quote Post

Reply to this topicStart new topic
1 User(s) are reading this topic (1 Guests and 0 Anonymous Users)
0 Members:

 



- Lo-Fi Version Support form
Copyrights and abuse reports form
Time is now: 22nd August 2019 - 22:57:10