Welcome Guest ( Log In | Register )

> Releases Upload / Добавление релизов

Добавить релиз тут / Click here to add release
Рекомендованные обменники / Recommended file shares

 
Reply to this topicStart new topic
> No Point In Living - Dream And Reality Part 1: Broken Dreams... (2018), Depressive Black Metal
post Jul 21 2019, 18:24:02
Post #1

Cultist
**************
Group: Металариец
Posts: 3,769
Releases: 1219
From: Koenigsberg
On Forums: 12 years 7 months
Thanks: 7212 time(s)
Russian Federation


(IMG:http://metalarea.org/images/audiocovers/2019_Jul/acov_tid324730_thumb.jpg)

*Artist: No Point In Living
*Album: Dream And Reality Part 1: Broken Dreams...
*Year: 2018
*Genre: Depressive Black Metal
*Country: Japan (IMG:http://metalarea.org/forum/style_images/flags/Japan.png)
*Format: mp3@CBR320kbps
*Size: 97MB

Tracklist:
1. Deep Place 03:28
2. Rest 05:48
3. Empty 04:09
4. All Wishes 05:07
5. My Pictures 07:42
6. Smile 08:52
7. ... 06:42
******************************
Total playing time: 41:48



Technical info
(IMG:http://metalarea.org/images/spectrogram/2019_Jul/fa0947336bb5051caa95186335ce1ac4.png)
Input File: 06 - Smile.mp3
Channels : 2
Sample Rate : 44100
Precision : 16-bit
Duration : 00:08:52.43 = 23480339 samples = 39932.5 CDDA sectors
File Size : 21.4M
Bit Rate : 321k
Sample Encoding: MPEG audio (layer I, II or III)
Comments :
Title=Smile
Artist=No Point In Living
Album=Dream And Reality Part 1: Broken Dreams…
Tracknumber=06
Year=2018
Genre=Depressive Black Metal



Register


Go to the top of the page
  Insert nick Quick quote
+Quote Post

Reply to this topicStart new topic
2 User(s) are reading this topic (2 Guests and 0 Anonymous Users)
0 Members:

 



- Lo-Fi Version Support form
Copyrights and abuse reports form
Time is now: 20th August 2019 - 22:36:36