Welcome Guest ( Log In | Register )

 
Reply to this topicStart new topic
> No Point In Living - Depression (2017), Depressive Black Metal
post Jul 21 2019, 18:29:12
Post #1

Cultist
**************
Group: Металариец
Posts: 4,182
Releases: 1324
From: Koenigsberg
On Forums: 12 years 11 months
Thanks: 8378 time(s)
Russian Federation


(IMG:http://metalarea.org/images/audiocovers/2019_Jul/acov_tid324733_thumb.jpg)

*Artist: No Point In Living
*Album: Depression
*Year: 2017
*Genre: Depressive Black Metal
*Country: Japan (IMG:http://metalarea.org/forum/style_images/flags/Japan.png)
*Format: mp3@CBR320kbps
*Size: 85MB

Tracklist:
1. Depression Part 1 07:03
2. Depression Part 2 09:36
3. Depression Part 3 10:46
4. Depression Part 4 07:53
******************************
Total playing time: 35:18



Technical info
(IMG:http://metalarea.org/images/spectrogram/2019_Jul/e19b600ad9af92af001c65bc23687f2d.png)
Input File: 03 - Depression Part 3.mp3
Channels : 2
Sample Rate : 44100
Precision : 16-bit
Duration : 00:10:46.96 = 28530848 samples = 48521.9 CDDA sectors
File Size : 26.0M
Bit Rate : 321k
Sample Encoding: MPEG audio (layer I, II or III)
Comments :
Title=Depression Part 3
Artist=No Point In Living
Album=Depression
Tracknumber=3
Year=2017
Genre=Depressive Black Metal



Register


Go to the top of the page
  Insert nick Quick quote
+Quote Post

Reply to this topicStart new topic
1 User(s) are reading this topic (1 Guests and 0 Anonymous Users)
0 Members:

 



- Lo-Fi Version Support form
Copyrights and abuse reports form
Time is now: 5th December 2019 - 18:08:09