Welcome Guest ( Log In | Register )

 
Reply to this topicStart new topic
> No Point In Living - Last Chance (2019), Depressive Black Metal
post Jul 21 2019, 18:38:12
Post #1

Cultist
**************
Group: Металариец
Posts: 4,236
Releases: 1330
From: Koenigsberg
On Forums: 12 years 11 months
Thanks: 8481 time(s)
Russian Federation


(IMG:http://metalarea.org/images/audiocovers/2019_Jul/acov_tid324736_thumb.jpg)

*Artist: No Point In Living
*Album: Last Chance
*Year: 2019
*Genre: Depressive Black Metal
*Country: Japan (IMG:http://metalarea.org/forum/style_images/flags/Japan.png)
*Format: mp3@CBR320kbps
*Size: 108MB

Tracklist:
1. Raven 08:42
2. Escape from Reality 10:32
3. Isolation 11:34
4. Wasted Life 11:46
5. Angel of Sorrow 04:38
******************************
Total playing time: 55:45



Technical info
(IMG:http://metalarea.org/images/spectrogram/2019_Jul/70cb95bee8c380b09d34c2064d9bfa8f.png)
Input File: 02 - Escape From Reality.mp3
Channels : 2
Sample Rate : 44100
Precision : 16-bit
Duration : 00:10:32.09 = 27875301 samples = 47407 CDDA sectors
File Size : 25.3M
Bit Rate : 320k
Sample Encoding: MPEG audio (layer I, II or III)
Comments :
Title=Escape From Reality
Artist=No Point In Living
Album=Last Chance
Tracknumber=02
Year=2019
Genre=Depressive Black Metal



Register


Go to the top of the page
  Insert nick Quick quote
+Quote Post

Reply to this topicStart new topic
1 User(s) are reading this topic (1 Guests and 0 Anonymous Users)
0 Members:

 



- Lo-Fi Version Support form
Copyrights and abuse reports form
Time is now: 16th December 2019 - 09:04:11