Welcome Guest ( Log In | Register )

> Releases Upload / Добавление релизов

Добавить релиз тут / Click here to add release
Рекомендованные обменники / Recommended file shares

 
Reply to this topicStart new topic
> No Point In Living - Last Hopes (2019), Depressive Black Metal
post Jul 21 2019, 18:43:11
Post #1

Cultist
**************
Group: Металариец
Posts: 3,770
Releases: 1219
From: Koenigsberg
On Forums: 12 years 7 months
Thanks: 7230 time(s)
Russian Federation


(IMG:http://metalarea.org/images/audiocovers/2019_Jul/acov_tid324738_thumb.jpg)

*Artist: No Point In Living
*Album: Last Hopes
*Year: 2019
*Genre: Depressive Black Metal
*Country: Japan (IMG:http://metalarea.org/forum/style_images/flags/Japan.png)
*Format: mp3@CBR320kbps
*Size: 98MB

Tracklist:
1. Tears of the Soul 13:36
2. Say Something 12:34
3. The Shore 16:48
******************************
Total playing time: 42:58



Technical info
(IMG:http://metalarea.org/images/spectrogram/2019_Jul/176c5d9b425022fd20bd782298d18934.png)
Input File: 02 - Say Something.mp3
Channels : 2
Sample Rate : 44100
Precision : 16-bit
Duration : 00:12:34.12 = 33256736 samples = 56559.1 CDDA sectors
File Size : 30.2M
Bit Rate : 320k
Sample Encoding: MPEG audio (layer I, II or III)
Comments :
Title=Say Something
Artist=No Point In Living
Album=Last Hopes
Tracknumber=02
Year=2019
Genre=Depressive Black Metal



Register


Go to the top of the page
  Insert nick Quick quote
+Quote Post

Reply to this topicStart new topic
2 User(s) are reading this topic (2 Guests and 0 Anonymous Users)
0 Members:

 



- Lo-Fi Version Support form
Copyrights and abuse reports form
Time is now: 22nd August 2019 - 15:05:32