Welcome Guest ( Log In | Register )

> Releases Upload / Добавление релизов

Добавить релиз тут / Click here to add release
Рекомендованные обменники / Recommended file shares

 
Reply to this topicStart new topic
> Weald And Woe - Eternal Grave [ep] (2018), Black Metal
post Jul 21 2019, 18:45:28
Post #1

Три Литра
***
Group: Завсегдатай
Posts: 271
Releases: 168
On Forums: 10 years 6 months
Thanks: 1676 time(s)
Russian Federation


(IMG:https://metalarea.org/images/audiocovers/2019_Jul/acov_tid324740_thumb.jpg)

*Artist: Weald And Woe
*Album: Eternal Grave [ep]
*Year: 2018
*Genre: Black Metal
*Country: United States (IMG:https://metalarea.org/forum/style_images/flags/United%20States.png)
*Format: mp3@CBR320kbps
*Size: 40MB

Tracklist:
01. Ancient Blood 03:42
02. Forgotten Flesh 05:07
03. Eternal Grave 09:00
******************************
Total playing time: 17:49



Technical info
(IMG:https://metalarea.org/images/spectrogram/2019_Jul/34de65ad8cb46ca4c4f7e52822cc2d07.png)
Input File: 01 - Ancient Blood.mp3
Channels : 2
Sample Rate : 44100
Precision : 16-bit
Duration : 00:03:42.94 = 9831830 samples = 16720.8 CDDA sectors
File Size : 9.03M
Bit Rate : 324k
Sample Encoding: MPEG audio (layer I, II or III)
Comments :
Title=Ancient Blood
Artist=WEALD AND WOE
Album=Eternal Grave /EP/
Tracknumber=1
Year=2018



Register


Go to the top of the page
  Insert nick Quick quote
+Quote Post

Reply to this topicStart new topic
2 User(s) are reading this topic (2 Guests and 0 Anonymous Users)
0 Members:

 



- Lo-Fi Version Support form
Copyrights and abuse reports form
Time is now: 24th August 2019 - 16:45:16